<?xml version="1.0" standalone="no"?>
<!DOCTYPE svg PUBLIC "-//W3C//DTD SVG 1.1//EN" "http://www.w3.org/Graphics/SVG/1.1/DTD/svg11.dtd" >
<svg xmlns="http://www.w3.org/2000/svg">
<metadata>
This is a custom SVG webfont generated by Font Squirrel.
Copyright   : Copyright c Men Nettelbladt 2006 All rights reserved
Designer    : Men Nettelbladt
Foundry     : Men Nettelbladt
</metadata>
<defs>
<font id="webfontKG5gUtGH" horiz-adv-x="851" >
<font-face units-per-em="2048" ascent="1638" descent="-410" />
<missing-glyph horiz-adv-x="393" />
<glyph unicode=" "  horiz-adv-x="393" />
<glyph unicode="&#x09;" horiz-adv-x="393" />
<glyph unicode="&#xa0;" horiz-adv-x="393" />
<glyph unicode="!" horiz-adv-x="409" d="M145 78q0 25 17.5 42t42.5 17t43 -17.5t18 -41.5q0 -25 -18.5 -42.5t-42.5 -17.5q-25 0 -42.5 17.5t-17.5 42.5zM246 385q0 -16 -12.5 -27.5t-28.5 -11.5t-27.5 11.5t-11.5 27.5v819q0 16 11 27.5t28 11.5q16 0 28.5 -11t12.5 -28v-819z" />
<glyph unicode="&#x22;" horiz-adv-x="720" d="M524 1284q39 0 39 -39v-205q0 -39 -39 -39t-39 39v205q0 39 39 39zM158 1245q0 39 39 39t39 -39v-205q0 -39 -39 -39t-39 39v205z" />
<glyph unicode="#" horiz-adv-x="937" d="M672 797v-250h166q39 0 39 -39t-39 -39h-166v-412q0 -39 -39 -39q-16 0 -27.5 11.5t-11.5 27.5v412h-250v-412q0 -39 -39 -39q-16 0 -27.5 11.5t-11.5 27.5v412h-166q-16 0 -27.5 11.5t-11.5 27.5t11.5 27.5t27.5 11.5h166v250h-166q-16 0 -27.5 11t-11.5 28 q0 16 11.5 27t27.5 11h166v371q0 16 11.5 27.5t27.5 11.5q39 0 39 -39v-371h250v371q0 16 11 27.5t28 11.5q39 0 39 -39v-371h166q39 0 39 -38q0 -39 -39 -39h-166zM594 797h-250v-250h250v250z" />
<glyph unicode="$" d="M584 584q47 -39 72.5 -93.5t27.5 -115.5q0 -59 -24.5 -114.5t-71.5 -94.5q-29 -27 -65 -42t-72 -22v-127q0 -16 -11.5 -27t-27.5 -11t-28.5 11t-12.5 27v127q-4 0 -6 2q-59 10 -109.5 44t-81.5 88q-16 35 14 55q14 8 29.5 4t24.5 -19q23 -39 58.5 -63.5t76.5 -30.5 q10 -2 17 -3t16 -1h2q72 0 125 47q35 29 52 68t15 82q0 43 -18.5 82t-53.5 65l-256 211q-47 37 -71.5 90.5t-26.5 112.5q0 59 24.5 111.5t69.5 91.5q29 25 63 40t68 21v127q0 16 12.5 27.5t28.5 11.5t27.5 -11.5t11.5 -27.5v-127q2 0 3 -1t3 -1q57 -10 105.5 -43t77.5 -84 q20 -35 -15 -55q-14 -8 -28.5 -4t-24.5 18q-41 78 -129 90q-20 4 -31 4h-2q-68 0 -118 -45q-33 -27 -50.5 -64.5t-15.5 -78.5q0 -86 68 -141z" />
<glyph unicode="%" horiz-adv-x="1214" d="M895 463q45 0 86 -17.5t70.5 -47t47 -70.5t17.5 -86q0 -47 -17.5 -87t-47 -70t-70.5 -47.5t-86 -17.5q-47 0 -87 17.5t-69.5 47.5t-47 70t-17.5 87q0 45 17.5 86t47 70.5t69.5 47t87 17.5zM895 94q61 0 104 43t43 105q0 61 -43 104t-104 43t-104 -43t-43 -104t43 -104.5 t104 -43.5zM543 1061q0 -47 -17.5 -87t-47 -70t-70.5 -47t-86 -17q-47 0 -87 17t-70 47t-47.5 70t-17.5 87q0 45 17.5 86t47.5 70.5t69.5 47t87.5 17.5q45 0 86 -17.5t70.5 -47t47 -70.5t17.5 -86zM174 1061q0 -61 43 -104.5t105 -43.5q61 0 104 43t43 105q0 61 -43 104 t-104 43t-104.5 -43t-43.5 -104zM911 1280q16 -6 21.5 -21.5t-2.5 -29.5l-574 -1188q-6 -16 -21.5 -21.5t-29.5 3.5q-16 6 -21 21t3 30l573 1188q6 16 21.5 21t29.5 -3z" />
<glyph unicode="&#x26;" horiz-adv-x="1009" d="M920 47q-12 -10 -29 -8t-27 14l-151 199l-58 -96q-63 -106 -184 -131t-221 43q-102 70 -121 190q-10 59 5.5 115.5t49.5 103.5l176 230l-151 196l-2 2q-39 59 -41 127t31 127q35 59 94 94t129 31q68 -2 125 -40t86 -99q29 -63 21.5 -131t-48.5 -123l-143 -184l168 -218 l76 -98l81 137q8 14 23.5 18.5t30.5 -5.5q14 -8 18 -23.5t-4 -30.5l-98 -163l170 -222q10 -14 8 -29.5t-14 -25.5zM412 770l129 170q29 37 35 83t-15 87q-20 43 -59 68.5t-86 27.5t-87 -21.5t-63 -64.5t-21.5 -86t27.5 -84zM659 317l-94 123l-153 201l-164 -211 q-27 -35 -38 -76t-3 -84q12 -86 88 -137q74 -51 160 -33q84 18 133 97z" />
<glyph unicode="'" horiz-adv-x="393" d="M236 1040q0 -16 -11.5 -27.5t-27.5 -11.5t-28.5 11.5t-12.5 27.5v205q0 16 12 27.5t29 11.5q16 0 27.5 -11t11.5 -28v-205z" />
<glyph unicode="(" horiz-adv-x="548" d="M473 1384q-127 -160 -190 -350q-63 -182 -64 -383q0 -201 64 -383q33 -96 80 -184t110 -166q10 -14 8 -29.5t-16 -25.5q-12 -10 -28.5 -8t-26.5 14q-133 168 -201 375q-68 197 -68 407q0 211 68 408q68 205 201 375q10 12 26.5 14t28.5 -8q14 -10 16 -27t-8 -29z" />
<glyph unicode=")" horiz-adv-x="550" d="M340 1079q68 -197 68 -407q0 -211 -68 -408q-35 -102 -86 -195.5t-117 -179.5q-10 -12 -25.5 -14t-29.5 8q-12 10 -14 25.5t8 30.5q63 78 110 166t80 184q31 92 47.5 188t16.5 195q0 98 -16.5 194.5t-47.5 188.5q-66 190 -190 350q-10 12 -8 28.5t14 26.5q14 10 29.5 8 t25.5 -14q66 -86 117 -179.5t86 -195.5z" />
<glyph unicode="*" d="M463 872v-241q0 -16 -10.5 -26.5t-26.5 -10.5t-26.5 10t-10.5 27v241l-211 -120q-12 -8 -27.5 -4t-23.5 18t-4 28.5t18 22.5l211 121l-211 121q-14 8 -18 22.5t4 28.5t23.5 18.5t27.5 -4.5l211 -120v241q0 16 10.5 26.5t26.5 10.5t26.5 -10t10.5 -27v-241l211 120 q14 8 28.5 4t22.5 -18t4 -28.5t-18 -22.5l-209 -121l209 -121q14 -8 18 -22.5t-4 -28.5t-22.5 -18.5t-28.5 4.5z" />
<glyph unicode="+" d="M672 629q16 0 27.5 -11.5t11.5 -27.5t-11.5 -27.5t-27.5 -11.5h-207v-207q0 -16 -11.5 -27.5t-27.5 -11.5q-39 0 -39 39v207h-207q-39 0 -39 39t39 39h207v207q0 39 39 38q16 0 27.5 -11t11.5 -27v-207h207z" />
<glyph unicode="," horiz-adv-x="393" d="M150 -63q43 16 43 63v61h-29q-16 0 -26.5 10.5t-10.5 26.5t10 26.5t27 10.5h65q16 0 26.5 -10t10.5 -27v-98q0 -45 -23.5 -81t-64.5 -52q-14 -6 -28.5 0t-20.5 20t0.5 29t20.5 21z" />
<glyph unicode="-" d="M711 590q0 -16 -11.5 -27.5t-27.5 -11.5h-492q-16 0 -28.5 11t-12.5 28q0 16 12.5 27.5t28.5 11.5h492q16 0 27.5 -11.5t11.5 -27.5z" />
<glyph unicode="." horiz-adv-x="393" d="M137 78q0 25 17.5 42t42.5 17t42 -17.5t17 -41.5q0 -25 -17.5 -42.5t-41.5 -17.5q-25 0 -42.5 17.5t-17.5 42.5z" />
<glyph unicode="/" d="M686 1364q16 -6 22.5 -20.5t0.5 -30.5l-492 -1352q-4 -16 -18.5 -22.5t-30.5 0.5q-16 6 -22.5 20t-2.5 31l492 1351q6 14 20.5 21.5t30.5 1.5z" />
<glyph unicode="0" d="M426 18q-59 0 -111.5 22.5t-91.5 60.5t-61.5 90.5t-22.5 111.5v696q0 59 22.5 111.5t61.5 90.5t91.5 60.5t111.5 22.5q57 0 109.5 -22.5t91.5 -60.5t61.5 -90t22.5 -112v-696q0 -59 -22.5 -111.5t-61.5 -90.5t-91.5 -60.5t-109.5 -22.5zM219 303q0 -43 16.5 -81t44 -65.5 t65.5 -44t81 -16.5t80 16.5t64.5 44t44 65.5t16.5 81v696q0 43 -16.5 81t-44 66t-64.5 44t-80 16t-81 -16t-65.5 -44t-44 -66t-16.5 -81v-696z" />
<glyph unicode="1" d="M256 971q-10 -10 -27 -10q-16 0 -28 10q-25 29 0 57l245 246q20 18 43 8q25 -10 25 -37v-1188q0 -16 -11 -27.5t-28 -11.5q-39 0 -39 39v1094z" />
<glyph unicode="2" d="M168 1087q-31 20 -14 56q29 47 72.5 80.5t97.5 50.5q115 33 215 -25q49 -29 83.5 -71.5t51.5 -96.5q16 -53 11 -108t-32 -107l-180 -344l-71 -134l-65 -123l-52 -99q-23 -43 -31 -62h393q16 0 27.5 -11t11.5 -27t-11 -27.5t-28 -11.5h-459q-23 0 -34 18q-10 18 0 39 l430 819q39 78 14 156q-23 80 -98 121q-72 41 -154 18q-80 -23 -123 -96q-10 -14 -25.5 -18.5t-29.5 3.5z" />
<glyph unicode="3" d="M426 104q68 16 111 71.5t43 127.5v123q0 43 -16.5 81t-44 65.5t-65.5 44t-81 16.5q-39 0 -39 39t39 39q43 0 81 16t65.5 44t44 65.5t16.5 81.5v81q0 70 -43 126.5t-111 72.5q-68 18 -132.5 -8.5t-98.5 -87.5q-20 -31 -56 -15q-31 20 -14 56q49 84 138 120.5t183 10.5 q94 -25 152.5 -100.5t58.5 -174.5v-81q0 -78 -38.5 -143.5t-102.5 -102.5q63 -37 102 -102.5t39 -143.5v-123q0 -98 -58 -174t-153 -102q-94 -25 -183 12t-138 121q-16 35 14 55q35 16 56 -14q35 -61 99 -88t132 -9z" />
<glyph unicode="4" d="M152 305q-20 0 -33 17q-10 16 -4 34l286 901q4 16 18.5 22.5t31.5 2.5q12 -4 19 -14.5t7 -22.5q0 -8 -2 -12l-125 -391l-48 -151l-43 -137l-34 -109q-14 -46 -20 -62h317v248q0 39 39 39t39 -39v-248h125q39 0 39 -39t-39 -39h-125v-248q0 -39 -39 -39t-39 39v248h-370z " />
<glyph unicode="5" d="M201 612q-29 10 -29 39v586q0 16 11.5 27.5t27.5 11.5h426q39 0 39 -39t-39 -39h-387v-444q53 41 117.5 54t130.5 -5q94 -25 152.5 -100.5t58.5 -174.5v-225q0 -98 -58.5 -174t-152.5 -102q-94 -25 -183.5 12t-136.5 121q-20 35 15 55q14 8 28.5 4t24.5 -18 q35 -61 99.5 -88t131.5 -9q68 16 111 71.5t43 127.5v225q0 70 -43 126.5t-111 72.5q-68 18 -132 -8.5t-99 -87.5q-18 -25 -45 -19z" />
<glyph unicode="6" d="M444 18q-59 0 -111 22.5t-90 60.5t-60.5 90.5t-22.5 111.5v696q0 98 58 174t153 101q94 27 183 -10t138 -121q16 -35 -14 -56q-14 -8 -29.5 -4t-25.5 19q-35 61 -99.5 88t-132.5 8q-68 -16 -110.5 -72.5t-42.5 -126.5v-294q41 41 94 64.5t112 23.5t111.5 -22.5 t90.5 -60.5t60.5 -90.5t22.5 -111.5v-205q0 -59 -22.5 -111.5t-60.5 -90.5t-90.5 -60.5t-111.5 -22.5zM238 303q0 -43 16 -81t45 -65.5t65.5 -44t79.5 -16.5t81 16.5t65.5 44t44 65.5t16.5 81v205q0 43 -16.5 81t-44 65.5t-65.5 44t-81 16.5t-79.5 -16.5t-65.5 -44 t-45 -65.5t-16 -81v-205z" />
<glyph unicode="7" d="M174 1034q-16 0 -27.5 11.5t-11.5 27.5v164q0 16 11.5 27.5t27.5 11.5h492q20 0 30 -14q12 -14 9 -35l-287 -1180q-4 -16 -17.5 -24.5t-29.5 -4.5q-31 6 -31 39q0 6 2 9l129 532l48 203l44 183l35 140l18 74h-403v-125q0 -39 -39 -39z" />
<glyph unicode="8" d="M426 18q-59 0 -110.5 22.5t-90.5 60.5t-61.5 90.5t-22.5 111.5v123q0 78 39 143.5t103 102.5q-63 37 -102.5 102.5t-39.5 143.5v81q0 59 22.5 111.5t61.5 90.5t90.5 60.5t110.5 22.5t111.5 -22.5t91.5 -60.5t61.5 -90t22.5 -112v-81q0 -78 -39 -143.5t-103 -102.5 q63 -37 102.5 -102.5t39.5 -143.5v-123q0 -59 -22.5 -111.5t-61.5 -90.5t-91.5 -60.5t-111.5 -22.5zM221 918q0 -43 16.5 -81t44 -66t64.5 -44t80 -16t81 16t65.5 44t44 65.5t16.5 81.5v81q0 43 -16.5 81t-44 66t-65.5 44t-81 16t-80 -16t-64.5 -44t-44 -66t-16.5 -81v-81z M221 303q0 -43 16.5 -81t44 -65.5t64.5 -44t80 -16.5t81 16.5t65.5 44t44 65.5t16.5 81v123q0 43 -16.5 81t-44 65.5t-65.5 44t-81 16.5t-80 -16.5t-64.5 -44t-44 -65.5t-16.5 -81v-123z" />
<glyph unicode="9" d="M408 510q-59 0 -110.5 22.5t-90.5 60.5t-61.5 90t-22.5 112v204q0 59 22.5 111.5t61.5 90.5t90 60.5t111 22.5q59 0 111 -22.5t91 -60.5t61.5 -90t22.5 -112v-696q0 -98 -59.5 -174t-153.5 -102q-92 -25 -182 12t-137 121q-16 35 14 55q14 8 29.5 4t23.5 -18 q35 -61 99.5 -88t132.5 -9q68 16 110.5 71.5t42.5 127.5v295q-39 -41 -92 -64.5t-114 -23.5zM203 795q0 -43 16.5 -81t44 -65.5t64.5 -44t80 -16.5t80.5 16.5t65.5 44t44 65.5t16 81v204q0 43 -16 81t-44 66t-65.5 44t-80.5 16t-80 -16t-64.5 -44t-44 -66t-16.5 -81v-204z " />
<glyph unicode=":" horiz-adv-x="393" d="M258 78q0 -25 -17.5 -42.5t-43.5 -17.5q-25 0 -42.5 17.5t-17.5 42.5t17.5 42t42.5 17q27 0 44 -17t17 -42zM197 915q27 0 44 -17t17 -42t-17.5 -42t-43.5 -17q-25 0 -42.5 17t-17.5 42t17.5 42t42.5 17z" />
<glyph unicode=";" horiz-adv-x="393" d="M229 135q16 0 26.5 -10t10.5 -27v-98q0 -45 -23.5 -81t-64.5 -52q-14 -6 -28.5 0t-20.5 20t0 28.5t21 21.5q43 16 43 63v61h-29q-16 0 -26.5 10.5t-10.5 26.5t10 26.5t27 10.5h65zM197 797q-25 0 -42.5 17t-17.5 42t17.5 42t42.5 17t42 -17t17 -42t-17 -42t-42 -17z" />
<glyph unicode="&#x3c;" d="M684 156q-10 -12 -25.5 -14.5t-29.5 8.5l-492 409q-12 12 -12 31q0 18 12 31l492 409q14 10 29.5 8t25.5 -14q10 -10 10 -25q0 -18 -14 -30l-455 -379l455 -379q14 -12 14 -31q0 -14 -10 -24z" />
<glyph unicode="=" d="M672 465q39 0 39 -39t-39 -39h-492q-16 0 -27.5 11.5t-11.5 27.5t11.5 27.5t27.5 11.5h492zM672 793q39 0 39 -39t-39 -39h-492q-16 0 -27.5 11t-11.5 28q0 16 11.5 27.5t27.5 11.5h492z" />
<glyph unicode="&#x3e;" d="M158 180q0 18 14 31l455 379l-455 379q-14 12 -14 30q0 16 8 25q10 12 26.5 14t28.5 -8l492 -409q14 -12 14 -31q0 -18 -14 -31l-492 -409q-12 -10 -28.5 -8.5t-26.5 14.5q-8 8 -8 24z" />
<glyph unicode="?" horiz-adv-x="731" d="M461 1163q-35 29 -78 38t-86 1q-45 -10 -81 -35.5t-58 -64.5q-8 -14 -23.5 -18.5t-30.5 3.5q-14 10 -19 24.5t5 31.5q31 53 81 89t110 46q59 12 119.5 -1t109.5 -50q100 -80 111 -207q4 -61 -17.5 -118.5t-64.5 -102.5l-103 -105q-59 -59 -59 -145v-164 q0 -16 -12.5 -27.5t-28.5 -11.5t-27.5 11.5t-11.5 27.5v164q0 119 82 201l104 104q31 33 47.5 74t12.5 86t-25.5 83.5t-56.5 65.5zM336 137q25 0 43 -17.5t18 -41.5q0 -25 -18.5 -42.5t-42.5 -17.5q-25 0 -42.5 17.5t-17.5 42.5t17.5 42t42.5 17z" />
<glyph unicode="@" horiz-adv-x="1564" d="M1229 1096q90 -90 137 -204t47 -241v-381q0 -51 -19.5 -95t-52 -76.5t-76.5 -51t-94 -18.5h-409q-49 0 -93 18.5t-77 51t-52.5 76.5t-19.5 95q0 49 19.5 93.5t52.5 77t77 52t93 19.5h168v164q0 49 -29 90t-76 61q-47 18 -96 8t-86 -44q-10 -10 -27 -11q-14 0 -24 11 q-10 10 -10 26t10 27q53 51 123.5 65.5t138.5 -14.5t109 -88t41 -131v-574h167q72 0 120 48.5t48 119.5v381q0 111 -42 213.5t-119 179.5q-80 78 -181.5 121t-214.5 43q-111 0 -213 -43t-180 -121t-121 -180t-43 -213v-368q0 -113 43 -214.5t121 -181.5q78 -78 180.5 -119.5 t212.5 -41.5h226q16 0 26 -11.5t10 -25.5q0 -16 -10 -26.5t-26 -10.5h-226q-127 0 -240.5 47t-203.5 137q-92 90 -139 204t-47 243v368q0 127 47 241t139 204q90 92 203.5 139t240.5 47q129 0 243 -47t204 -139zM594 270q0 -72 49 -120t119 -48h168v336h-168q-70 0 -119 -49 t-49 -119z" />
<glyph unicode="A" horiz-adv-x="884" d="M807 68q1 -6 1 -12q0 -10 -4 -19q-7 -14 -24 -19q-5 -1 -10 -1q-10 0 -20 6q-14 8 -19 24q-10 35 -20 74q-10 35 -21.5 81t-27.5 103h-439l-28 -103q-12 -46 -23 -81q-10 -39 -20 -74q-4 -16 -18 -24q-9 -5 -19 -6q-5 0 -11 1q-16 4 -24 19q-5 10 -6 20q0 5 2 11 l327 1187q10 29 39 29t37 -29zM639 383l-56 203l-57 205l-49 179l-35 128l-34 -128l-50 -179l-56 -205l-56 -203h393z" />
<glyph unicode="B" horiz-adv-x="876" d="M166 1237q0 39 39 39h246q59 0 111 -22.5t90 -60.5t60.5 -90t22.5 -112v-73q0 -78 -39 -143.5t-102 -102.5q63 -37 102 -102.5t39 -143.5v-115q0 -59 -22.5 -111.5t-60.5 -90t-90 -60t-111 -22.5h-246q-39 0 -39 39v1171zM657 426q0 43 -16 81t-45 65.5t-65.5 44 t-79.5 16.5h-207v-529h207q43 0 79.5 16.5t65.5 44.5t45 65.5t16 80.5v115zM657 991q0 43 -16 81t-45 65.5t-65.5 44t-79.5 16.5h-207v-487h207q43 0 79.5 16t65.5 44t45 65.5t16 81.5v73z" />
<glyph unicode="C" horiz-adv-x="788" d="M352 27q-94 27 -152.5 102.5t-58.5 173.5v696q0 98 58.5 174t152.5 101q40 11 78 11q53 0 106 -21q89 -37 136 -121q8 -13 7 -24q0 -19 -22 -32q-14 -8 -29.5 -4t-23.5 19q-35 61 -99 88q-38 16 -77 16q-27 0 -55 -8q-68 -16 -111 -72.5t-43 -126.5v-696q0 -72 43 -127 t111 -72q28 -8 55 -7q39 0 77 16q65 27 99 88q8 14 23.5 18t29.5 -4q22 -13 22 -31q0 -11 -7 -24q-47 -84 -136 -121q-53 -22 -109 -22q-37 0 -75 10z" />
<glyph unicode="D" horiz-adv-x="876" d="M451 1276q59 0 111 -22.5t90 -60.5t60.5 -90t22.5 -112v-680q0 -59 -22.5 -111.5t-60.5 -90t-90 -60t-111 -22.5h-246q-39 0 -39 39v1171q0 39 39 39h246zM657 991q0 43 -16 81t-44 65.5t-65.5 44t-80.5 16.5h-207v-1094h207q43 0 80.5 16.5t65.5 44.5t44 65.5t16 80.5 v680z" />
<glyph unicode="E" horiz-adv-x="753" d="M205 27q-39 0 -39 39v1171q0 39 39 39h409q39 0 39 -39t-39 -39h-370v-487h329q39 0 39 -39t-39 -39h-329v-529h370q39 0 39 -38q0 -39 -39 -39h-409z" />
<glyph unicode="F" horiz-adv-x="737" d="M205 27q-16 0 -27.5 11t-11.5 28v1171q0 16 11 27.5t28 11.5h409q39 0 39 -39t-39 -39h-370v-487h329q39 0 39 -39t-39 -39h-329v-567q0 -39 -39 -39z" />
<glyph unicode="G" horiz-adv-x="843" d="M141 999q0 98 59.5 174t151.5 101q40 11 78 11q53 0 106 -21q89 -37 138 -121q16 -35 -15 -56q-14 -8 -29.5 -4t-23.5 19q-35 61 -100 88q-39 16 -78 16q-27 0 -55 -8q-68 -16 -111 -72.5t-43 -126.5v-696q0 -43 16.5 -81t45 -65.5t65.5 -44t80 -16.5t81 16.5t65.5 44 t44 65.5t16.5 81v289h-166q-16 0 -27.5 11t-11.5 28q0 16 11.5 27.5t27.5 11.5h205q39 0 39 -39v-328q0 -59 -22.5 -111.5t-60.5 -90.5t-90.5 -60.5t-111.5 -22.5t-110.5 22.5t-90.5 60.5t-61.5 90.5t-22.5 111.5v696z" />
<glyph unicode="H" horiz-adv-x="901" d="M657 711v534q0 16 11.5 27.5t27.5 11.5t28.5 -11t12.5 -28v-1188q0 -16 -12 -27.5t-29 -11.5q-16 0 -27.5 11.5t-11.5 27.5v576h-411v-576q0 -16 -12.5 -27.5t-28.5 -11.5t-27.5 11.5t-11.5 27.5v1188q0 16 11 27.5t28 11.5q16 0 28.5 -11t12.5 -28v-534h411z" />
<glyph unicode="I" horiz-adv-x="409" d="M205 18q-16 0 -27.5 11.5t-11.5 27.5v1188q0 16 11 27.5t28 11.5q16 0 28.5 -11t12.5 -28v-1188q0 -16 -12.5 -27.5t-28.5 -11.5z" />
<glyph unicode="J" horiz-adv-x="681" d="M524 303q0 -78 -39 -143.5t-104 -104.5q-66 -37 -143 -37q-76 0 -142 37q-20 13 -20 33q0 10 6 23q8 14 23.5 18t29.5 -4q47 -29 103 -29q57 0 104 29t74.5 76t27.5 102v942q0 16 12.5 27.5t28.5 11.5t27.5 -11t11.5 -28v-942z" />
<glyph unicode="K" horiz-adv-x="862" d="M762 1278q16 -13 16 -34q0 -12 -8 -21l-328 -461l332 -688q3 -8 3 -16q0 -7 -2 -14q-5 -15 -19 -21q-10 -5 -20 -6q-6 0 -11 2q-14 5 -23 22l-311 647l-145 -203v-428q0 -16 -12.5 -27.5t-28.5 -11.5t-27.5 11.5t-11.5 27.5v1188q0 16 11 27.5t28 11.5q16 0 28.5 -11 t12.5 -28v-624l461 647q10 14 25 17q4 1 7 1q12 0 23 -8z" />
<glyph unicode="L" horiz-adv-x="712" d="M205 27q-16 0 -28.5 11t-12.5 28v1179q0 16 12 27.5t29 11.5q16 0 27.5 -11t11.5 -28v-1141h370q16 0 27.5 -11t11.5 -27t-11 -27.5t-28 -11.5h-409z" />
<glyph unicode="M" horiz-adv-x="1064" d="M205 18q-39 0 -39 39v1188q0 33 31 39q5 1 9 1q22 0 34 -23l125 -265l50 -106l48 -101l41 -88l28 -61l28 61l40 88l48 101l50 106l125 265q12 24 35 23q5 0 10 -1q31 -6 31 -39v-1188q0 -16 -11 -27.5t-28 -11.5q-39 0 -39 39v1012l-79 -164l-83 -176l-92 -197 q-10 -23 -35 -22q-25 0 -36 22l-93 197l-81 176l-78 164v-1012q0 -16 -11.5 -27.5t-27.5 -11.5z" />
<glyph unicode="N" horiz-adv-x="983" d="M786 18q-5 -1 -9 -1q-22 0 -34 24l-206 428l-84 175l-83 170l-73 149l-53 110v-1016q0 -39 -39 -39t-39 39v1188q0 33 31 39q5 1 9 1q22 0 34 -23l206 -428l84 -176l82 -170l72 -148l55 -111v1016q0 39 39 39t39 -39v-1188q0 -33 -31 -39z" />
<glyph unicode="O" d="M141 999q0 59 22.5 111.5t60.5 90.5t90.5 60.5t111.5 22.5t111.5 -22.5t90.5 -60.5t60.5 -90t22.5 -112v-696q0 -59 -22.5 -111.5t-60.5 -90.5t-90.5 -60.5t-111.5 -22.5t-111.5 22.5t-90.5 60.5t-60.5 90.5t-22.5 111.5v696zM633 999q0 43 -16.5 81t-44 66t-65.5 44 t-81 16t-81 -16t-65.5 -44t-44 -66t-16.5 -81v-696q0 -43 16.5 -81t44 -65.5t65.5 -44t81 -16.5t81 16.5t65.5 44t44 65.5t16.5 81v696z" />
<glyph unicode="P" horiz-adv-x="819" d="M166 1237q0 39 39 39h246q59 0 111 -22.5t90 -60.5t60.5 -90t22.5 -112v-114q0 -59 -22.5 -111.5t-60.5 -90.5t-90 -60.5t-111 -22.5h-207v-535q0 -39 -39 -39t-39 39v1180zM657 991q0 43 -16 81t-44 65.5t-65.5 44t-80.5 16.5h-207v-528h207q43 0 80.5 16t65.5 44t44 66 t16 81v114z" />
<glyph unicode="Q" d="M426 18q-59 0 -111.5 22.5t-90.5 60.5t-60.5 90.5t-22.5 111.5v696q0 59 22.5 111.5t60.5 90.5t90.5 60.5t111.5 22.5t111.5 -22.5t90.5 -60.5t60.5 -90t22.5 -112v-696q0 -70 -30 -127t-79 -98l105 -180q5 -10 5 -20q0 -5 -1 -10q-4 -15 -19 -26q-10 -5 -19 -5 q-5 0 -10 1q-15 4 -24 21l-107 180q-47 -21 -106 -21zM219 303q0 -43 16.5 -81t45 -65.5t65.5 -44t80 -16.5t81 16.5t65.5 44t44 65.5t16.5 81v696q0 43 -16.5 81t-44 66t-65.5 44t-81 16t-80 -16t-65.5 -44t-45 -66t-16.5 -81v-696z" />
<glyph unicode="R" d="M451 1276q59 0 111 -22.5t90 -60.5t60.5 -90t22.5 -112v-114q0 -98 -56 -172t-144 -101l198 -532q3 -8 3 -16t-3 -15q-6 -14 -22 -21q-8 -3 -16 -3t-15 3q-14 6 -21 23l-204 549h-4h-207v-535q0 -39 -39 -39q-16 0 -27.5 11.5t-11.5 27.5v1180q0 16 11 27.5t28 11.5h246z M657 991q0 43 -16 81t-44 65.5t-65.5 44t-80.5 16.5h-207v-528h207q43 0 80.5 16t65.5 44t44 66t16 81v114z" />
<glyph unicode="S" horiz-adv-x="782" d="M508 141q37 29 59.5 69t26.5 87q1 8 0 16q0 86 -62 152l-325 336q-43 45 -64 102q-17 48 -17 99q0 10 1 20q4 59 33.5 113.5t77.5 91.5q49 37 109 50q31 7 63 7q29 0 57 -6q59 -12 109.5 -47t80.5 -88q16 -35 -14 -56q-14 -8 -29.5 -4t-23.5 19q-23 39 -58.5 64.5 t-80.5 35.5q-20 4 -41 4l-45 -5q-43 -9 -78 -38q-35 -27 -56.5 -65.5t-25.5 -81.5q-1 -9 -1 -19q0 -35 12 -68q15 -42 46 -73l328 -338q45 -45 65 -104q17 -49 17 -102v-21q-4 -63 -35 -118.5t-82 -94.5t-113 -53q-31 -7 -61 -8l-62 8q-63 12 -114 49t-84 92q-5 10 -6 19 q0 5 2 11q4 15 20 23q14 8 28.5 4t24.5 -18q49 -84 144 -105q22 -5 44 -5q24 0 48 6q45 11 82 40z" />
<glyph unicode="T" horiz-adv-x="778" d="M655 1276q16 0 28.5 -11.5t12.5 -27.5t-12 -27.5t-29 -11.5h-225v-1141q0 -16 -12 -27.5t-29 -11.5q-16 0 -27.5 11.5t-11.5 27.5v1141h-227q-16 0 -27.5 11.5t-11.5 27.5t11 27.5t28 11.5h532z" />
<glyph unicode="U" horiz-adv-x="868" d="M227 303q0 -43 16.5 -81t44 -65.5t65.5 -44t81 -16.5t80 16.5t64.5 44t44 65.5t16.5 81v942q0 16 12.5 27.5t28.5 11.5t27.5 -11t11.5 -28v-942q0 -59 -22.5 -111.5t-61.5 -90.5t-91 -60.5t-110 -22.5q-59 0 -111.5 22.5t-91 60.5t-61.5 90.5t-23 111.5v942 q0 16 12.5 27.5t28.5 11.5t27.5 -11t11.5 -28v-942z" />
<glyph unicode="V" horiz-adv-x="917" d="M94 1235q-1 5 -1 11q0 10 5 19q8 13 25 17q6 1 11 2q10 0 19 -5q13 -7 17 -24l123 -444l49 -179l47 -172l41 -149q18 -68 31 -106l28 106l41 149l48 172l49 179l123 444q4 16 18 24q9 5 19 5q6 0 12 -2q16 -4 23 -17q5 -8 5 -19q0 -6 -2 -11l-327 -1188q-8 -29 -37 -29 q-33 0 -39 29z" />
<glyph unicode="W" horiz-adv-x="1429" d="M102 1235q-1 6 -1 11q0 29 30 38q5 1 10 1q11 0 20 -6q13 -9 17 -26l103 -426l42 -174l42 -168l36 -147l27 -113l27 113l35 147l41 168l42 174l103 426q6 31 39 31q31 0 37 -31l102 -426l42 -174l42 -168l37 -147l26 -113l27 113l36 147l41 168l42 174l102 426 q4 16 18 26q9 6 20 6q5 0 9 -1q31 -8 31 -34q0 -7 -2 -15l-287 -1188q-8 -29 -37 -29q-33 0 -38 29l-103 426l-42 174l-41 169l-36 149l-26 112l-27 -112l-37 -149l-42 -169l-42 -174l-102 -426q-8 -29 -37 -29q-33 0 -39 29z" />
<glyph unicode="X" horiz-adv-x="864" d="M756 23q-9 -5 -18 -6q-6 0 -12 2q-15 5 -21 20l-273 545l-272 -545q-8 -14 -23 -20q-6 -2 -11 -2q-9 0 -20 6q-14 8 -19 22q-2 6 -2 11q0 9 5 20l297 596l-276 555q-8 16 -3 30.5t19 22.5q10 5 19 5q6 0 12 -2q14 -5 22 -19l252 -504l252 504q6 14 22 19q6 2 11 2 q9 0 18 -5q16 -8 21.5 -22.5t-2.5 -30.5l-279 -555l299 -596q5 -10 5 -20q0 -6 -2 -11q-5 -14 -21 -22z" />
<glyph unicode="Y" horiz-adv-x="823" d="M106 1280q10 5 20 5q6 0 11 -2q14 -5 23 -19l106 -211l83 -169l63 -124l61 124l84 169l107 211q8 14 22 19q6 2 11 2q9 0 20 -5q14 -8 19 -23q2 -6 2 -11q0 -9 -5 -19l-282 -565v-605q0 -39 -39 -39t-39 39v605l-283 565q-5 10 -5 19q0 6 2 11q5 15 19 23z" />
<glyph unicode="Z" horiz-adv-x="786" d="M109 66q0 10 2 14l219 522l84 199l75 180l59 140l32 77h-433q-39 0 -38 39q0 39 38 39h492q20 0 33 -16q6 -12 6 -23q0 -10 -2 -14l-219 -523l-84 -198l-76 -180l-58 -141l-32 -77h432q39 0 39 -38q0 -39 -39 -39h-492q-20 0 -32 16q-6 13 -6 23z" />
<glyph unicode="[" horiz-adv-x="524" d="M205 -137q-39 0 -39 39v1499q0 39 39 39h205q39 0 39 -39t-39 -39h-166v-1421h166q39 0 39 -39t-39 -39h-205z" />
<glyph unicode="\" d="M709 -10q6 -16 -0.5 -30.5t-22.5 -20.5t-30.5 0t-20.5 22l-492 1352q-4 16 2.5 30.5t22.5 20.5t30.5 -1t18.5 -22z" />
<glyph unicode="]" horiz-adv-x="524" d="M319 1440q16 0 27.5 -11.5t11.5 -27.5v-1499q0 -16 -11 -27.5t-28 -11.5h-204q-39 0 -39 39t39 39h166v1421h-166q-39 0 -39 39t39 39h204z" />
<glyph unicode="^" horiz-adv-x="1024" d="M164 848q-12 10 -13 26.5t9 28.5l323 369q8 12 29 12q18 0 29 -12l323 -369q10 -12 9 -28.5t-13 -26.5t-29 -10q-16 0 -26 12l-129 147l-98 113q-47 53 -66 76q-18 -23 -67 -76l-99 -113l-127 -147q-10 -12 -26 -12q-17 0 -29 10z" />
<glyph unicode="_" horiz-adv-x="1024" d="M1024 -190q16 0 27.5 -11.5t11.5 -27.5t-11.5 -27.5t-27.5 -11.5h-1024q-16 0 -28.5 11t-12.5 28q0 16 12.5 27.5t28.5 11.5h1024z" />
<glyph unicode="`" horiz-adv-x="1024" d="M639 1128q12 -10 13 -25.5t-9 -25.5t-25.5 -11t-27.5 9l-205 185q-10 10 -11 25t9 26q10 10 25.5 11t25.5 -9z" />
<glyph unicode="a" horiz-adv-x="720" d="M496 512v164q0 49 -28 90t-75 61q-31 12 -63 13q-16 0 -32 -3q-48 -9 -83 -44q-10 -12 -27 -13q-14 0 -24 13q-10 10 -10 24q0 16 10 27q51 51 122 65q24 5 46 5q46 0 90 -19q68 -29 107.5 -88t39.5 -131v-610q0 -16 -10 -26.5t-27 -10.5h-204q-49 0 -93.5 19.5t-77 52 t-52 76.5t-19.5 93t19.5 93.5t52 77t77 52t93.5 19.5h168zM160 270q0 -70 48 -119t120 -49h168v336h-168q-72 0 -120 -49t-48 -119z" />
<glyph unicode="b" horiz-adv-x="794" d="M205 29q-16 0 -26.5 10t-10.5 27v1220q0 16 10 26.5t27 10.5q16 0 26.5 -10t10.5 -27v-381h168q49 0 93 -19.5t76.5 -52t52 -76.5t19.5 -93v-394q0 -49 -19.5 -93t-52 -76.5t-76.5 -52t-93 -19.5h-205zM242 831v-729h168q70 0 119 49.5t49 118.5v394q0 70 -49.5 118.5 t-118.5 48.5h-168z" />
<glyph unicode="c" horiz-adv-x="671" d="M293 39q-70 29 -110 89t-40 134v410q0 74 40 134t110 89q45 19 91 19q23 0 47 -5q71 -14 124 -67q10 -10 10 -27q0 -14 -10 -24t-27 -11q-14 0 -24 11q-37 35 -87 45q-18 4 -36 3q-32 0 -62 -12q-47 -20 -74.5 -62t-27.5 -93v-410q0 -51 27.5 -93t74.5 -63q31 -14 65 -13 q16 0 33 3q50 10 87 47q10 10 24 11q16 0 27 -11q10 -10 10 -26q0 -14 -10 -25q-53 -53 -124 -67q-24 -5 -47 -5q-46 0 -91 19z" />
<glyph unicode="d" horiz-adv-x="794" d="M385 29q-49 0 -93 19.5t-77 52t-52.5 76.5t-19.5 93v394q0 49 19.5 93t52.5 76.5t77 52t93 19.5h168v381q0 16 10 26.5t27 10.5q16 0 26.5 -10t10.5 -27v-1220q0 -16 -10.5 -26.5t-26.5 -10.5h-205zM385 831q-70 0 -119 -49t-49 -118v-394q0 -70 49 -119t119 -49h168v729 h-168z" />
<glyph unicode="e" horiz-adv-x="753" d="M293 39q-68 29 -109 89t-41 134v410q0 49 19.5 93t52.5 76.5t77 52t93 19.5t93 -19.5t77 -52t52.5 -76.5t19.5 -93v-205q0 -16 -10.5 -26.5t-26.5 -10.5h-373v-168q0 -51 28.5 -93t76.5 -63q31 -14 63 -13q16 0 33 3q49 10 86 47q10 10 24 11q16 0 27 -11q10 -10 10 -26 q0 -14 -10 -25q-51 -53 -123 -67q-24 -5 -47 -5q-47 0 -92 19zM385 840q-70 0 -119 -49.5t-49 -118.5v-168h336v168q0 70 -49 119t-119 49z" />
<glyph unicode="f" horiz-adv-x="606" d="M115 831q-16 0 -26.5 10.5t-10.5 26.5t10 26.5t27 10.5h127v176q0 49 19.5 93.5t52 77t76.5 52t93 19.5q16 0 26.5 -10t10.5 -27q0 -16 -10 -26.5t-27 -10.5q-70 0 -119 -49t-49 -119v-176h168q16 0 26.5 -10t10.5 -27q0 -16 -10 -26.5t-27 -10.5h-168v-774 q0 -16 -10 -26.5t-26 -10.5t-26.5 10.5t-10.5 26.5v774h-127z" />
<glyph unicode="g" horiz-adv-x="786" d="M385 29q-49 0 -93 19.5t-77 52t-52.5 76.5t-19.5 93v394q0 49 19.5 93t52.5 76.5t77 52t93 19.5h205q16 0 26.5 -10t10.5 -27v-1015q0 -74 -40 -134.5t-110 -89.5q-45 -19 -91 -19q-23 0 -47 5q-71 14 -124 68q-10 10 -10 26q0 14 10 25q10 10 25 10q16 0 26 -10 q37 -37 87 -47q17 -3 33 -4q33 0 65 14q47 20 74.5 62t27.5 94v176h-168zM385 831q-70 0 -119 -49t-49 -118v-394q0 -70 49 -119t119 -49h168v729h-168z" />
<glyph unicode="h" horiz-adv-x="802" d="M205 20q-16 0 -26.5 10.5t-10.5 26.5v1229q0 16 10 26.5t27 10.5q16 0 26.5 -10t10.5 -27v-381h168q49 0 93 -19.5t76.5 -52t52 -76.5t19.5 -93v-607q0 -16 -10 -26.5t-27 -10.5q-16 0 -26 10.5t-10 26.5v607q0 70 -49.5 118.5t-118.5 48.5h-168v-774q0 -16 -10.5 -26.5 t-26.5 -10.5z" />
<glyph unicode="i" horiz-adv-x="409" d="M205 1126q-23 0 -40.5 17.5t-17.5 40.5t17.5 40t40.5 17q25 0 41 -17.5t16 -39.5q0 -23 -16 -40.5t-41 -17.5zM242 57q0 -16 -10.5 -26.5t-26.5 -10.5t-26.5 10.5t-10.5 26.5v820q0 16 10 26t27 10q16 0 26.5 -10t10.5 -26v-820z" />
<glyph unicode="j" horiz-adv-x="425" d="M221 1126q-23 0 -40 17.5t-17 40.5t17.5 40t39.5 17q25 0 41.5 -17.5t16.5 -39.5q0 -23 -16.5 -40.5t-41.5 -17.5zM16 -389q-16 0 -26 10t-10 27q0 16 10 26.5t26 10.5q72 0 120 49t48 119v1024q0 16 10.5 26t26.5 10t26.5 -10t10.5 -26v-1024q0 -49 -19.5 -93.5t-52 -77 t-77 -52t-93.5 -19.5z" />
<glyph unicode="k" horiz-adv-x="778" d="M686 76q5 -10 6 -19q0 -5 -2 -10q-4 -14 -18 -22q-8 -5 -16 -5q-5 0 -11 2q-14 5 -22 17l-254 463l-127 -144v-301q0 -16 -10.5 -26.5t-26.5 -10.5t-26.5 10.5t-10.5 26.5v1229q0 16 10 26.5t27 10.5q16 0 26.5 -10t10.5 -27v-817l385 432q10 10 25.5 11t27.5 -9 q11 -11 11 -28q0 -14 -9 -23l-262 -293z" />
<glyph unicode="l" horiz-adv-x="409" d="M262 25q-47 29 -73.5 74.5t-26.5 99.5v1087q0 16 11 26.5t26 10.5q16 0 26.5 -10t10.5 -27v-1087q0 -35 17 -64t46 -45q14 -8 18 -22l2 -10q0 -10 -6 -19q-8 -14 -22 -19q-5 -1 -10 -1z" />
<glyph unicode="m" horiz-adv-x="1212" d="M242 831v-774q0 -16 -11.5 -26.5t-25.5 -10.5q-16 0 -26.5 10.5t-10.5 26.5v811q0 16 10 26.5t27 10.5h614q49 0 93 -19.5t77 -52t52.5 -76.5t19.5 -93v-607q0 -16 -11.5 -26.5t-25.5 -10.5q-16 0 -26.5 10.5t-10.5 26.5v607q0 70 -49 118.5t-119 48.5h-168v-774 q0 -16 -11 -26.5t-26 -10.5q-16 0 -26 10.5t-10 26.5v774h-336z" />
<glyph unicode="n" horiz-adv-x="802" d="M205 20q-16 0 -26.5 10.5t-10.5 26.5v811q0 16 10 26.5t27 10.5h205q49 0 93 -19.5t76.5 -52t52 -76.5t19.5 -93v-607q0 -16 -10 -26.5t-27 -10.5q-16 0 -26 10.5t-10 26.5v607q0 70 -49.5 118.5t-118.5 48.5h-168v-774q0 -16 -10.5 -26.5t-26.5 -10.5z" />
<glyph unicode="o" horiz-adv-x="770" d="M385 20q-49 0 -93 19.5t-77 52.5t-52.5 77t-19.5 93v410q0 49 19.5 93t52.5 76.5t77 52t93 19.5t93 -19.5t77 -52t52.5 -76.5t19.5 -93v-410q0 -49 -19.5 -93t-52.5 -77t-77 -52.5t-93 -19.5zM385 840q-70 0 -119 -49.5t-49 -118.5v-410q0 -70 49 -119t119 -49t119 49.5 t49 118.5v410q0 70 -49 119t-119 49z" />
<glyph unicode="p" horiz-adv-x="794" d="M205 -389q-16 0 -26.5 10t-10.5 27v1220q0 16 10 26.5t27 10.5h205q49 0 93 -19.5t76.5 -52t52 -76.5t19.5 -93v-394q0 -49 -19.5 -93t-52 -76.5t-76.5 -52t-93 -19.5h-168v-381q0 -16 -10.5 -26.5t-26.5 -10.5zM578 664q0 70 -49.5 118.5t-118.5 48.5h-168v-729h168 q70 0 119 49.5t49 118.5v394z" />
<glyph unicode="q" horiz-adv-x="794" d="M385 29q-49 0 -93 19.5t-77 52t-52.5 76.5t-19.5 93v394q0 49 19.5 93t52.5 76.5t77 52t93 19.5h205q16 0 26.5 -10t10.5 -27v-1220q0 -16 -10.5 -26.5t-26.5 -10.5t-26.5 10t-10.5 27v381h-168zM385 831q-70 0 -119 -49t-49 -118v-394q0 -70 49 -119t119 -49h168v729 h-168z" />
<glyph unicode="r" horiz-adv-x="612" d="M205 20q-16 0 -26.5 10.5t-10.5 26.5v811q0 16 10 26.5t27 10.5h205q61 0 120 -33q14 -8 19 -22q1 -5 1 -9q0 -9 -5 -18q-8 -14 -22.5 -18t-28.5 4q-39 23 -84 22h-168v-774q0 -16 -10.5 -26.5t-26.5 -10.5z" />
<glyph unicode="s" horiz-adv-x="673" d="M430 135q50 46 50 111q0 7 -1 14q-4 74 -65 117l-191 135q-41 29 -65.5 72t-28.5 94v15q0 95 72 163q37 35 85 49q31 9 61 9q18 0 36 -3q51 -8 92 -36.5t66 -71.5q8 -14 5 -28.5t-18 -22.5q-14 -8 -28.5 -4t-22.5 18q-37 61 -104 72q-12 2 -25 1q-55 0 -98 -38 q-47 -44 -48 -109q0 -5 1 -10q6 -70 63 -111l191 -133q43 -31 67.5 -76t28.5 -98q1 -9 1 -18q0 -43 -16 -83q-19 -48 -59 -83q-39 -35 -88 -50q-32 -10 -66 -10q-18 0 -36 3q-51 10 -94 37.5t-70 74.5q-5 10 -6 19q0 5 2 10q4 14 18 22t28.5 4t22.5 -18q37 -66 111 -76 q14 -2 28 -2q56 0 101 41z" />
<glyph unicode="t" horiz-adv-x="606" d="M115 831q-16 0 -26.5 10.5t-10.5 26.5t10 26.5t27 10.5h127v381q0 16 10 26.5t27 10.5q16 0 26 -10t10 -27v-381h168q16 0 26.5 -10t10.5 -27q0 -16 -10 -26.5t-27 -10.5h-168v-569q0 -70 49.5 -119t118.5 -49q16 0 26.5 -10t10.5 -27q0 -16 -10 -26.5t-27 -10.5 q-49 0 -93 19.5t-76.5 52.5t-52 77t-19.5 93v569h-127z" />
<glyph unicode="u" horiz-adv-x="802" d="M393 29q-49 0 -93 19.5t-77 52t-52 76.5t-19 93v607q0 16 10 26t26 10t26.5 -10t10.5 -26v-607q0 -70 49.5 -119t118.5 -49h168v775q0 16 10.5 26t26.5 10t26.5 -10t10.5 -26v-811q0 -16 -10.5 -26.5t-26.5 -10.5h-205z" />
<glyph unicode="v" horiz-adv-x="757" d="M98 866q-2 6 -1 12q0 8 3 16q6 13 23 17q6 2 11 2q8 0 17 -4q13 -6 17 -22l86 -287l36 -117l34 -114l30 -103l25 -80q8 33 22 80l32 103l35 114l36 117l86 287q4 16 17 22q8 4 17 4q6 0 11 -2q16 -4 22 -17q4 -8 4 -16q0 -6 -2 -12l-245 -819q-6 -27 -35 -27t-35 27z" />
<glyph unicode="w" horiz-adv-x="1101" d="M104 868q-1 5 -1 11q0 9 5 16q7 12 23 16t28.5 -3t16.5 -23l66 -264q12 -55 26 -113l29 -112l25.5 -102t21.5 -85q8 37 21 85l25 102l28 112l28 113l68 264q6 29 35 28q29 0 37 -28l65 -264q12 -55 27 -113l29 -112q14 -54 25 -102t22 -85q8 37 20 85l26 102l27 112 l29 113l68 264q4 16 16 23t29 3q14 -4 22 -16q5 -8 6 -17q0 -5 -2 -10l-204 -819q-8 -29 -37 -29t-35 29l-68 264l-28 113l-28 112l-26 102q-12 48 -20 85q-10 -37 -21.5 -85l-25.5 -102l-29 -112l-27 -113l-65 -264q-8 -29 -37 -29t-35 29z" />
<glyph unicode="x" horiz-adv-x="737" d="M123 25q-14 8 -19 22q-1 5 -1 10q0 10 6 19l219 399l-211 383q-8 14 -4 28.5t18 22.5q8 5 16 5q5 0 11 -2q14 -5 22 -17l189 -344l190 344q6 12 21 17q6 2 11 2l17 -5q14 -8 18.5 -22.5t-3.5 -28.5l-211 -383l219 -399q5 -10 5 -19q0 -5 -1 -10q-4 -14 -19 -22 q-9 -5 -17 -5l-11 2q-14 5 -21 17l-198 358l-197 -358q-8 -12 -22 -17q-6 -2 -11 -2q-8 0 -16 5z" />
<glyph unicode="y" horiz-adv-x="755" d="M102 -389q-16 0 -26 10t-10 27q0 16 10 26.5t26 10.5q55 0 101 32q43 33 61 86l76 254l-244 809q-4 14 3 27.5t22 17.5q7 2 12 2q9 0 18 -4q13 -6 17 -22l209 -701l211 701q4 16 17 22q8 4 17 4q6 0 13 -2q14 -4 21 -17q5 -8 5 -17q0 -5 -2 -11l-245 -819l-80 -264 q-23 -74 -88 -125q-64 -47 -144 -47z" />
<glyph unicode="z" horiz-adv-x="704" d="M111 66q0 12 2 16l174 340l66 131l63 122l49 97q20 41 31 59h-349q-16 0 -26 10.5t-10 26.5t10 26.5t26 10.5h410q20 0 31 -18q6 -10 6 -19q0 -8 -4 -16l-174 -340l-68 -131l-61 -122l-50 -97q-22 -41 -30 -60h350q14 0 25.5 -10t11.5 -26t-11.5 -26.5t-25.5 -10.5h-410 q-25 0 -32 18q-4 5 -4 19z" />
<glyph unicode="{" horiz-adv-x="524" d="M301 836q0 -51 -22.5 -93.5t-61.5 -70.5q39 -29 61.5 -71t22.5 -93v-451q0 -53 36 -89t89 -36q39 0 39 -38q0 -39 -39 -39q-86 0 -144.5 58t-58.5 144v451q0 51 -36.5 88t-88.5 37q-39 0 -39 39t39 39q51 0 88 35.5t37 89.5v409q0 86 58.5 144.5t144.5 58.5q39 0 39 -39 t-39 -39q-53 0 -89 -37t-36 -88v-409z" />
<glyph unicode="|" horiz-adv-x="425" d="M223 1735q39 0 39 -39v-2048q0 -39 -39 -39t-39 39v2048q0 39 39 39z" />
<glyph unicode="}" horiz-adv-x="524" d="M221 508q0 51 22.5 93t61.5 71q-39 29 -61.5 70.5t-22.5 93.5v409q0 51 -35.5 88t-87.5 37q-16 0 -28.5 11.5t-12.5 27.5t12.5 27.5t28.5 11.5q41 0 78 -15.5t64.5 -43t44 -64.5t16.5 -80v-409q0 -53 36 -89t89 -36q16 0 27.5 -11.5t11.5 -27.5t-11.5 -27.5t-27.5 -11.5 q-53 0 -89 -37t-36 -88v-451q0 -43 -16.5 -79.5t-44 -64.5t-64.5 -43t-78 -15q-16 0 -28.5 11t-12.5 28q0 16 12.5 27t28.5 11q51 0 87 36t36 89v451z" />
<glyph unicode="~" d="M723 600q14 -10 17 -24.5t-5 -26.5q-55 -80 -147 -96q-94 -16 -172 41l-25 18q-51 39 -112 27q-61 -10 -97 -64q-10 -12 -24.5 -16t-28.5 6q-29 23 -10 51q55 80 147 96q94 16 170 -41l25 -18q51 -39 114 -27q61 10 97 64q22 28 51 10z" />
<glyph unicode="&#xa1;" horiz-adv-x="409" d="M205 915q25 0 43 -17t18 -42t-18.5 -42t-42.5 -17q-25 0 -42.5 17t-17.5 42t17.5 42t42.5 17zM205 588q16 0 28.5 -11.5t12.5 -27.5v-819q0 -16 -12.5 -27.5t-28.5 -11.5t-27.5 11t-11.5 28v819q0 16 11.5 27.5t27.5 11.5z" />
<glyph unicode="&#xa2;" d="M391 825q-47 -20 -74.5 -61t-27.5 -92v-410q0 -51 27.5 -92t74.5 -61q31 -12 62 -13h2q68 0 116 49q10 10 27 11q16 0 29 -11q10 -12 10 -28t-10 -27q-57 -57 -133 -70v-126q0 -16 -11.5 -27.5t-27.5 -11.5t-28.5 11t-12.5 28v126l-26.5 7.5t-27.5 9.5q-70 29 -110.5 90 t-40.5 135v410q0 74 41 135t110 90q14 6 26.5 9t27.5 7v127q0 16 12 27.5t29 11.5q16 0 27.5 -11t11.5 -28v-127q76 -12 133 -69q10 -10 10 -27q0 -16 -10 -29q-12 -10 -29 -10q-16 0 -27 10q-53 49 -116 50h-2q-31 -1 -62 -13z" />
<glyph unicode="&#xa3;" d="M713 104q39 0 39 -38q0 -39 -39 -39h-574q-33 0 -39 32q-4 33 27 43q61 23 99 76t38 119v336h-125q-16 0 -27.5 11t-11.5 28q0 16 11.5 27.5t27.5 11.5h125v329q0 84 50.5 148.5t129.5 87.5q80 23 158 -9t119 -104q18 -35 -16 -55q-14 -8 -28.5 -4t-25.5 18 q-29 49 -80 70.5t-106 7.5q-53 -14 -88 -59t-35 -101v-329h207q39 0 39 -39t-39 -39h-207v-336q0 -113 -74 -193h445z" />
<glyph unicode="&#xa4;" d="M426 387q-98 0 -172 57l-90 -90q-10 -12 -29 -12q-16 0 -26 12q-10 10 -11 27q0 18 11 29l90 90q-57 74 -58 172q0 96 58 172l-90 90q-10 10 -11 27q0 16 11 28q10 10 26 10q18 0 29 -10l90 -90q74 57 172 57t172 -57l90 90q10 10 27 10q16 0 28 -10q10 -12 11 -28 q0 -16 -11 -27l-90 -90q57 -76 58 -172q0 -98 -58 -172l90 -90q10 -10 11 -29q0 -16 -11 -27q-12 -12 -28 -12t-27 12l-90 90q-74 -57 -172 -57zM633 672q0 43 -16.5 81t-44 65.5t-65.5 44t-81 16.5t-81 -16.5t-65.5 -44t-44 -65.5t-16.5 -81t16.5 -81t44 -65.5t65.5 -44 t81 -16.5t81 16.5t65.5 44t44 65.5t16.5 81z" />
<glyph unicode="&#xa5;" d="M387 305h-199q-39 0 -38 39q0 39 38 39h199v250h-199q-39 0 -38 39q0 39 38 39h174l-258 516q-8 16 -3 30.5t20 22.5q16 8 30.5 3t22.5 -19l107 -211l83 -169l62 -124l61 124l84 169l107 211q8 14 22.5 19t30.5 -3q14 -8 19.5 -22.5t-2.5 -30.5l-259 -516h191 q39 0 39 -39t-39 -39h-215v-250h215q39 0 39 -39t-39 -39h-215v-248q0 -39 -39 -39t-39 39v248z" />
<glyph unicode="&#xa6;" horiz-adv-x="425" d="M213 506q39 0 39 -39v-819q0 -39 -39 -39t-39 39v819q0 39 39 39zM213 1735q39 0 39 -39v-819q0 -39 -39 -39t-39 39v819q0 39 39 39z" />
<glyph unicode="&#xa7;" d="M578 764q49 -39 70.5 -96.5t10.5 -118.5q-18 -92 -92 -143q68 -66 72 -160q0 -102 -78 -174q-39 -33 -87 -46.5t-97 -5.5q-49 10 -90 38t-66 71q-16 35 15 55q14 8 29.5 4t23.5 -18q35 -59 102 -72q66 -10 119 33q53 45 49 113q0 68 -53 110l-232 183q-47 41 -68.5 98 t-10.5 119q8 45 32.5 81.5t59.5 61.5q-68 66 -72 160q0 49 19.5 94t58.5 80q39 33 87 46t97 5q49 -10 90 -37.5t66 -70.5q16 -35 -15 -56q-14 -8 -29.5 -4t-23.5 19q-35 59 -102 71q-68 10 -119 -33q-53 -45 -49 -112q0 -68 53 -111zM582 563q8 41 -6.5 78t-45.5 61 l-178 142q-31 -16 -52 -43t-28 -62q-8 -41 6.5 -77.5t45.5 -61.5l178 -141q31 16 52.5 42.5t27.5 61.5z" />
<glyph unicode="&#xa8;" horiz-adv-x="1024" d="M618 1184q0 23 17.5 40t40.5 17q25 0 41 -17.5t16 -39.5q0 -23 -16.5 -40.5t-40.5 -17.5q-23 0 -40.5 17.5t-17.5 40.5zM348 1126q-23 0 -40 17.5t-17 40.5t17.5 40t39.5 17q25 0 41.5 -17.5t16.5 -39.5q0 -23 -16.5 -40.5t-41.5 -17.5z" />
<glyph unicode="&#xa9;" horiz-adv-x="1470" d="M705 915q-41 -10 -67 -44.5t-26 -75.5v-287q0 -43 26 -77t67 -44t78.5 6.5t60.5 52.5q8 14 23.5 18.5t29.5 -3.5q35 -20 14 -55q-35 -59 -98 -85t-129 -10q-68 18 -110 72.5t-42 124.5v287q0 70 42 124t110 72q66 16 129.5 -9.5t97.5 -84.5q20 -35 -14 -55 q-14 -8 -29.5 -4t-23.5 18q-23 37 -60.5 53t-78.5 6zM1370 651q0 -129 -48 -242.5t-138 -205.5q-90 -90 -205 -137.5t-244 -47.5q-127 0 -241.5 47.5t-204.5 137.5q-92 92 -139.5 205.5t-47.5 242.5t47.5 243t139.5 206q90 90 204.5 137t241.5 47q129 0 244 -47t205 -137 q90 -92 138 -206t48 -243zM735 96q113 0 214.5 42t178.5 120q78 80 120 181.5t42 211.5q0 111 -42 212.5t-120 178.5q-78 80 -179 122t-214 42q-111 0 -212 -42t-179 -122q-78 -78 -120 -179t-42 -212t42 -212t120 -181q78 -78 179 -120t212 -42z" />
<glyph unicode="&#xaa;" horiz-adv-x="624" d="M360 1276q59 -16 96.5 -64.5t37.5 -109.5v-430q0 -16 -10.5 -26.5t-26.5 -10.5h-144q-76 0 -128 52t-52 128t52.5 128t127.5 52h107v107q0 35 -22.5 63.5t-57.5 38.5t-67.5 -4t-51.5 -45q-8 -14 -22.5 -18t-28.5 4t-18.5 22.5t6.5 28.5q29 53 86 76.5t116 7.5zM207 815 q0 -45 30.5 -75.5t75.5 -30.5h107v213h-107q-45 0 -75.5 -32t-30.5 -75z" />
<glyph unicode="&#xab;" horiz-adv-x="858" d="M705 836q0 -10 -7 -19l-53 -98l-42 -75q-19 -36 -25 -46q6 -12 27 -51l44 -80l58 -105q6 -10 6 -18q0 -20 -21 -35q-16 -8 -30.5 -4t-22.5 21l-139 252q-12 18 0 38l131 238q8 14 22.5 19.5t30.5 -3.5q21 -14 21 -34zM324 309q-16 -8 -30.5 -4t-23.5 21l-139 252 q-12 18 0 38l131 238q8 14 22.5 19.5t30.5 -3.5q20 -14 21 -34q0 -10 -6 -19l-54 -98l-42 -75q-19 -36 -25 -46q6 -12 28 -51l44 -80l57 -105q6 -10 6 -18q0 -21 -20 -35z" />
<glyph unicode="&#xac;" d="M672 629q39 0 39 -39v-246q0 -39 -39 -39q-16 0 -27.5 11.5t-11.5 27.5v207h-453q-16 0 -27.5 11t-11.5 28q0 16 11.5 27.5t27.5 11.5h492z" />
<glyph unicode="&#xad;" d="M711 590q0 -16 -11.5 -27.5t-27.5 -11.5h-492q-16 0 -28.5 11t-12.5 28q0 16 12.5 27.5t28.5 11.5h492q16 0 27.5 -11.5t11.5 -27.5z" />
<glyph unicode="&#xae;" horiz-adv-x="1470" d="M592 305q-16 0 -27.5 11.5t-11.5 27.5v606q0 16 11 27.5t28 11.5h164q86 0 145.5 -58.5t59.5 -144.5q0 -66 -39 -118t-99 -74l131 -232q8 -14 4 -28.5t-18 -24.5q-14 -8 -29.5 -4t-23.5 19l-150 260h-104v-240q0 -16 -12.5 -27.5t-28.5 -11.5zM881 786q0 51 -36 88 t-89 37h-123v-249h123q53 0 89 35.5t36 88.5zM102 651q0 129 47.5 243t139.5 206q90 90 204.5 137t241.5 47q129 0 244 -47t205 -137q90 -92 138 -206t48 -243t-48 -242.5t-138 -205.5q-90 -90 -205 -137.5t-244 -47.5q-127 0 -241.5 47.5t-204.5 137.5q-92 92 -139.5 205.5 t-47.5 242.5zM735 1206q-111 0 -212 -42t-179 -122q-78 -78 -120 -179t-42 -212t42 -212t120 -181q78 -78 179.5 -120t211.5 -42q113 0 214.5 42t178.5 120q78 80 120 181.5t42 211.5q0 111 -42 212.5t-120 178.5q-78 80 -179 122t-214 42z" />
<glyph unicode="&#xaf;" horiz-adv-x="1024" d="M1024 1571q16 0 27.5 -11.5t11.5 -27.5t-11.5 -27.5t-27.5 -11.5h-1024q-16 0 -28.5 11.5t-12.5 27.5t12.5 27.5t28.5 11.5h1024z" />
<glyph unicode="&#xb0;" horiz-adv-x="641" d="M543 1061q0 -47 -17.5 -87t-48.5 -70t-70.5 -47t-84.5 -17q-47 0 -87 17t-70 47t-47.5 70t-17.5 87q0 45 17.5 86t47.5 70.5t69.5 47t87.5 17.5q45 0 84.5 -17.5t70.5 -47t48.5 -70.5t17.5 -86zM174 1061q0 -61 43 -104.5t105 -43.5q59 0 103 43t44 105q0 61 -44 104 t-103 43q-61 0 -104.5 -43t-43.5 -104z" />
<glyph unicode="&#xb1;" d="M713 66q0 -16 -12.5 -27.5t-28.5 -11.5h-492q-16 0 -27.5 11t-11.5 28q0 16 11.5 27t27.5 11h492q16 0 28.5 -11t12.5 -27zM426 305q-16 0 -27.5 11.5t-11.5 27.5v207h-207q-16 0 -27.5 11t-11.5 28q0 16 11.5 27.5t27.5 11.5h207v207q0 16 11.5 27t27.5 11t28.5 -11 t12.5 -27v-207h205q16 0 28.5 -11.5t12.5 -27.5t-12.5 -27.5t-28.5 -11.5h-205v-207q0 -16 -12.5 -27.5t-28.5 -11.5z" />
<glyph unicode="&#xb2;" horiz-adv-x="608" d="M446 1006l-25 -40l-60 -95l-68 -109l-53 -86h198q16 0 26.5 -10.5t10.5 -26.5t-10 -26.5t-27 -10.5h-268q-20 0 -33 19q-10 20 2 38l246 385q25 41 12 82q-10 43 -47 66q-41 25 -82 12q-43 -8 -65 -49q-8 -14 -22.5 -18t-28.5 4t-18.5 22.5t5.5 28.5q16 33 46 53.5 t65 30.5q74 20 139 -21q61 -37 82 -112q16 -74 -25 -137z" />
<glyph unicode="&#xb3;" horiz-adv-x="606" d="M403 958q33 -25 51.5 -62.5t18.5 -80.5v-41q0 -61 -37 -109.5t-96 -64.5t-116.5 7.5t-86.5 76.5q-10 14 -6 28.5t19 22.5q14 8 28.5 4t22.5 -18q18 -31 51 -45t67 -4q35 10 57.5 38.5t22.5 63.5v41q0 43 -31.5 75t-74.5 32q-16 0 -26.5 10t-10.5 26t10 26.5t27 10.5 q29 0 53.5 14.5t38.5 39.5q31 53 0 106q-14 25 -38.5 39t-53.5 14t-53.5 -14t-38.5 -39q-8 -14 -22.5 -18t-28.5 4t-18.5 22.5t5.5 28.5q23 41 66 65.5t90 24.5t90 -24.5t66 -65.5q25 -41 24 -90q0 -49 -24 -90q-21 -36 -46 -54z" />
<glyph unicode="&#xb4;" horiz-adv-x="1024" d="M590 1313q12 10 27.5 9t25.5 -11t9 -25.5t-11 -25.5l-205 -185q-12 -10 -27.5 -9t-25.5 11t-9 25.5t11 25.5z" />
<glyph unicode="&#xb5;" horiz-adv-x="819" d="M614 913q16 0 26.5 -10t10.5 -26v-820q0 -16 -10 -26.5t-27 -10.5q-16 0 -26 10.5t-10 26.5v31q-33 -31 -76 -49.5t-92 -18.5t-92.5 18.5t-75.5 49.5v-440q0 -16 -10.5 -26.5t-26.5 -10.5t-26.5 10t-10.5 27v1229q0 16 10 26t27 10q16 0 26.5 -10t10.5 -26v-615 q0 -70 49 -119t119 -49t119 49.5t49 118.5v615q0 16 10 26t26 10z" />
<glyph unicode="&#xb6;" horiz-adv-x="983" d="M889 1276q39 0 39 -39t-39 -39h-105v-1304q0 -39 -39 -39t-38 39v1304h-209v-1304q0 -39 -39 -39t-39 39v813h-43q-59 0 -111.5 22.5t-90.5 60t-60.5 90t-22.5 111.5t22.5 111.5t60.5 90.5t90 60.5t112 22.5h512zM420 1198h-43q-43 0 -81 -16.5t-65.5 -44t-44 -65.5 t-16.5 -81t16.5 -81t44 -65.5t65.5 -44t81 -16.5h43v414z" />
<glyph unicode="&#xb7;" horiz-adv-x="393" d="M137 795q0 25 17.5 42t42.5 17t42 -17.5t17 -41.5q0 -25 -17.5 -42.5t-41.5 -17.5q-25 0 -42.5 17.5t-17.5 42.5z" />
<glyph unicode="&#xb8;" horiz-adv-x="1024" d="M477 57q0 16 11.5 27.5t27.5 11.5q39 0 39 -39v-125q0 -55 -26.5 -102t-73.5 -74q-14 -10 -29.5 -5t-26.5 20q-8 14 -4 29.5t21 23.5q29 16 45 45t16 63v125z" />
<glyph unicode="&#xb9;" horiz-adv-x="479" d="M309 1280q23 -10 23 -35v-614q0 -16 -10.5 -26.5t-26.5 -10.5t-26.5 10t-10.5 27v524q-23 -20 -43 -42l-37 -38l-39 -39q-10 -10 -26 -10t-27 10q-10 10 -10 27q0 16 10 27l182 182q18 18 41 8z" />
<glyph unicode="&#xba;" horiz-adv-x="624" d="M313 1282q76 0 128.5 -52t52.5 -128v-287q0 -76 -52.5 -128t-128.5 -52t-128 52t-52 128v287q0 76 52 128t128 52zM313 709q43 0 75 30.5t32 75.5v287q0 43 -32 74.5t-75 31.5q-45 0 -75.5 -31.5t-30.5 -74.5v-287q0 -45 30.5 -75.5t75.5 -30.5z" />
<glyph unicode="&#xbb;" horiz-adv-x="858" d="M516 344q0 8 6 18l58 105l43 80l26 51q-6 10 -25 46l-40 75l-54 98q-6 8 -6 19q0 20 21 34q14 8 29.5 3t23.5 -19l131 -238q10 -20 0 -38l-139 -252q-8 -16 -23.5 -20.5t-29.5 3.5q-21 15 -21 35zM147 344q0 8 7 18l57 105l43 80l27 51q-6 10 -26 46l-40 75l-53 98 q-6 8 -6 19q0 20 20 34q14 8 29.5 3t23.5 -19l131 -238q10 -20 0 -38l-139 -252q-8 -16 -23.5 -20.5t-29.5 3.5q-21 15 -21 35z" />
<glyph unicode="&#xbc;" horiz-adv-x="1224" d="M258 1155q-23 -20 -43 -42l-37 -38l-39 -39q-10 -10 -26 -10t-27 10q-10 10 -10 27q0 16 10 27l182 182q18 18 41 8t23 -35v-614q0 -16 -10.5 -26.5t-26.5 -10.5t-26.5 10t-10.5 27v524zM1098 258q16 0 26.5 -10t10.5 -27q0 -16 -10.5 -26.5t-26.5 -10.5h-70v-127 q0 -16 -10 -26.5t-27 -10.5q-16 0 -26.5 10.5t-10.5 26.5v127h-227q-20 0 -33 17q-10 18 -2 35l182 450q6 14 19.5 20.5t30.5 0.5q23 -10 22 -35q0 -10 -2 -15l-70 -170l-54 -133l-38 -96h172v86q0 16 10.5 26.5t26.5 10.5t26.5 -10.5t10.5 -26.5v-86h70zM885 1280 q16 -6 21 -21.5t-3 -29.5l-573 -1188q-6 -16 -21.5 -21.5t-29.5 3.5q-16 6 -21.5 21t2.5 30l574 1188q6 16 21.5 21t29.5 -3z" />
<glyph unicode="&#xbd;" horiz-adv-x="1220" d="M258 1155q-23 -20 -43 -42l-37 -38l-39 -39q-10 -10 -26 -10t-27 10q-10 10 -10 27q0 16 10 27l182 182q18 18 41 8t23 -35v-614q0 -16 -10.5 -26.5t-26.5 -10.5t-26.5 10t-10.5 27v524zM1102 432l-84 -133l-70 -110l-53 -87h199q16 0 26 -10t10 -26t-10 -26.5t-26 -10.5 h-269q-20 0 -32 18q-10 20 2 39l245 385q25 41 13 82q-10 43 -47 65q-41 25 -82 13q-43 -8 -66 -49q-8 -14 -22.5 -18.5t-28.5 3.5t-18.5 22.5t6.5 28.5q16 33 45.5 53.5t64.5 30.5q74 20 139 -20q61 -37 82 -113q17 -74 -24 -137zM885 1280q16 -6 21 -21.5t-3 -29.5 l-573 -1188q-6 -16 -21.5 -21.5t-29.5 3.5q-16 6 -21.5 21t2.5 30l574 1188q6 16 21.5 21t29.5 -3z" />
<glyph unicode="&#xbe;" horiz-adv-x="1286" d="M434 774q0 -61 -37 -109.5t-96 -64.5t-116.5 7.5t-86.5 76.5q-10 14 -6 28.5t19 22.5q14 8 28.5 4t22.5 -18q18 -31 51 -45t68 -4t57 38.5t22 63.5v41q0 43 -31.5 75t-74.5 32q-16 0 -26.5 10t-10.5 26t10.5 26.5t26.5 10.5q29 0 53.5 14.5t38.5 39.5q31 53 0 106 q-14 25 -38.5 39t-53.5 14t-53.5 -14t-38.5 -39q-8 -14 -22.5 -18t-28.5 4t-18.5 22.5t5.5 28.5q23 41 66 65.5t90 24.5t90 -24.5t66 -65.5q25 -41 24 -90q0 -49 -24 -90q-20 -35 -45 -54q33 -25 51 -62.5t18 -80.5v-41zM1159 258q16 0 26.5 -10t10.5 -27q0 -16 -10 -26.5 t-27 -10.5h-69v-127q0 -16 -10.5 -26.5t-26.5 -10.5t-26.5 10.5t-10.5 26.5v127h-228q-20 0 -32 17q-10 18 -2 35l182 450q6 14 19.5 20.5t29.5 0.5q23 -10 23 -35q0 -10 -2 -15l-70 -170l-54 -133l-38 -96h172v86q0 16 10 26.5t27 10.5q16 0 26.5 -10.5t10.5 -26.5v-86h69z M946 1280q16 -6 21.5 -21.5t-2.5 -29.5l-574 -1188q-6 -16 -21.5 -21.5t-29.5 3.5q-16 6 -21.5 21t3.5 30l573 1188q6 16 21.5 21t29.5 -3z" />
<glyph unicode="&#xbf;" horiz-adv-x="731" d="M334 856q0 25 17.5 42t41.5 17q25 0 43.5 -17t18.5 -42t-18.5 -42t-43.5 -17t-42 17t-17 42zM221 -293q-102 80 -112 207q-4 61 17 118.5t64 102.5l105 105q59 59 59 145v164q0 16 11.5 27.5t27.5 11.5t28.5 -11.5t12.5 -27.5v-164q0 -117 -84 -201l-102 -104 q-66 -66 -60 -160q4 -45 24.5 -84t55.5 -65q35 -29 79 -39.5t87 0.5q92 18 139 100q8 14 23.5 18.5t30.5 -4.5q31 -20 14 -55q-31 -53 -81 -89t-109 -48q-61 -10 -121 3t-109 50z" />
<glyph unicode="&#xc0;" horiz-adv-x="884" d="M313 1667q-12 10 -12 27q0 16 10 28t27 13q16 0 29 -11l204 -184q12 -10 13 -27q0 -16 -11 -28q-10 -12 -26 -12t-29 10zM807 68q4 -16 -3 -30.5t-24 -19.5q-16 -4 -30.5 4.5t-18.5 24.5q-10 35 -20 74q-10 35 -21.5 81t-27.5 103h-439l-28 -103q-12 -46 -23 -81 q-10 -39 -20 -74q-4 -16 -17.5 -24.5t-30.5 -4.5q-16 4 -24 18.5t-4 31.5l327 1187q10 29 39 29t37 -29zM639 383l-56 203l-57 205l-49 179l-35 128l-34 -128l-50 -179l-56 -205l-56 -203h393z" />
<glyph unicode="&#xc1;" horiz-adv-x="884" d="M367 1483q-12 -10 -29 -10q-16 0 -27 12q-10 12 -10 28t12 27l205 184q12 10 29 11q16 0 26 -13q10 -12 11 -28q0 -16 -13 -27zM807 68q4 -16 -3 -30.5t-24 -19.5q-16 -4 -30.5 4.5t-18.5 24.5q-10 35 -20 74q-10 35 -21.5 81t-27.5 103h-439l-28 -103q-12 -46 -23 -81 q-10 -39 -20 -74q-4 -16 -17.5 -24.5t-30.5 -4.5q-16 4 -24 18.5t-4 31.5l327 1187q10 29 39 29t37 -29zM639 383l-56 203l-57 205l-49 179l-35 128l-34 -128l-50 -179l-56 -205l-56 -203h393z" />
<glyph unicode="&#xc2;" horiz-adv-x="884" d="M418 1686q25 18 49 0l184 -144q12 -10 14.5 -25.5t-8.5 -29.5q-10 -12 -25.5 -14.5t-29.5 8.5l-65 51l-54 42q-27 22 -41 32q-14 -10 -41 -32l-53 -42l-65 -51q-12 -10 -28.5 -8t-27.5 14q-10 14 -8 29.5t14 25.5zM807 68q4 -16 -3 -30.5t-24 -19.5q-16 -4 -30.5 4.5 t-18.5 24.5q-10 35 -20 74q-10 35 -21.5 81t-27.5 103h-439l-28 -103q-12 -46 -23 -81q-10 -39 -20 -74q-4 -16 -17.5 -24.5t-30.5 -4.5q-16 4 -24 18.5t-4 31.5l327 1187q10 29 39 29t37 -29zM639 383l-56 203l-57 205l-49 179l-35 128l-34 -128l-50 -179l-56 -205 l-56 -203h393z" />
<glyph unicode="&#xc3;" horiz-adv-x="884" d="M238 1536q-14 10 -18.5 25.5t5.5 29.5q37 57 109 70q66 12 125 -31l16 -12q31 -20 64 -14q37 6 55 34q10 14 25.5 18.5t29.5 -5.5t17.5 -25.5t-7.5 -30.5q-37 -57 -106 -69q-35 -6 -66.5 2t-58.5 28l-16 13q-31 20 -66 14q-33 -6 -55 -35q-10 -14 -24.5 -18t-28.5 6z M807 68q4 -16 -3 -30.5t-24 -19.5q-16 -4 -30.5 4.5t-18.5 24.5q-10 35 -20 74q-10 35 -21.5 81t-27.5 103h-439l-28 -103q-12 -46 -23 -81q-10 -39 -20 -74q-4 -16 -17.5 -24.5t-30.5 -4.5q-16 4 -24 18.5t-4 31.5l327 1187q10 29 39 29t37 -29zM639 383l-56 203l-57 205 l-49 179l-35 128l-34 -128l-50 -179l-56 -205l-56 -203h393z" />
<glyph unicode="&#xc4;" horiz-adv-x="884" d="M606 1534q-25 0 -42 17.5t-17 41.5q0 25 17.5 42.5t41.5 17.5q25 0 42.5 -17.5t17.5 -42.5t-17.5 -42t-42.5 -17zM219 1593q0 25 17.5 42.5t42.5 17.5t42 -17.5t17 -42.5t-17.5 -42t-41.5 -17q-25 0 -42.5 17t-17.5 42zM807 68q4 -16 -3 -30.5t-24 -19.5 q-16 -4 -30.5 4.5t-18.5 24.5q-10 35 -20 74q-10 35 -21.5 81t-27.5 103h-439l-28 -103q-12 -46 -23 -81q-10 -39 -20 -74q-4 -16 -17.5 -24.5t-30.5 -4.5q-16 4 -24 18.5t-4 31.5l327 1187q10 29 39 29t37 -29zM639 383l-56 203l-57 205l-49 179l-35 128l-34 -128l-50 -179 l-56 -205l-56 -203h393z" />
<glyph unicode="&#xc5;" horiz-adv-x="884" d="M602 1614q0 -66 -47 -112t-113 -46t-111.5 46t-45.5 112t46 112t111 46q66 0 113 -46t47 -112zM356 1614q0 -37 26 -62.5t60 -25.5q37 0 62.5 25.5t25.5 62.5t-25.5 62.5t-62.5 25.5q-35 0 -60.5 -25.5t-25.5 -62.5zM807 68q4 -16 -3 -30.5t-24 -19.5q-16 -4 -30.5 4.5 t-18.5 24.5q-10 35 -20 74q-10 35 -21.5 81t-27.5 103h-439l-28 -103q-12 -46 -23 -81q-10 -39 -20 -74q-4 -16 -17.5 -24.5t-30.5 -4.5q-16 4 -24 18.5t-4 31.5l327 1187q10 29 39 29t37 -29zM639 383l-56 203l-57 205l-49 179l-35 128l-34 -128l-50 -179l-56 -205 l-56 -203h393z" />
<glyph unicode="&#xc6;" horiz-adv-x="1263" d="M754 1198v-487h327q16 0 28.5 -11.5t12.5 -27.5t-12 -27.5t-29 -11.5h-327v-529h368q16 0 28.5 -11t12.5 -27t-12 -27.5t-29 -11.5h-409q-16 0 -27.5 11t-11.5 28v239h-420l-48 -107l-38 -83l-33 -74q-6 -16 -21.5 -21.5t-29.5 0.5q-16 8 -21.5 22.5t0.5 31.5l529 1179 q10 23 37 23h493q16 0 28.5 -11.5t12.5 -27.5t-12 -27.5t-29 -11.5h-368zM674 1198h-21q-4 -6 -21 -47l-46 -103l-65 -144l-75 -169l-79 -179l-78 -173h385v815z" />
<glyph unicode="&#xc7;" horiz-adv-x="806" d="M350 27q-92 27 -151.5 102.5t-59.5 173.5v696q0 98 59.5 174t151.5 101q47 12 94.5 9t90.5 -20.5t77.5 -48t59.5 -71.5l20 -37q8 -14 4 -29.5t-18 -23.5t-29.5 -4t-23.5 18l-21 35q-35 61 -100.5 88t-132.5 8q-68 -16 -110 -72.5t-42 -126.5v-696q0 -72 42 -127t110 -72 q68 -18 133 8.5t100 88.5l21 35q8 14 23.5 18t29.5 -4t18 -23.5t-4 -29.5l-20 -37q-35 -59 -89.5 -94t-117.5 -46v-92q0 -55 -27.5 -102t-75.5 -74q-14 -10 -29.5 -5t-23.5 20q-8 14 -4 29.5t19 23.5q29 16 45 45t16 63v92q-8 2 -16.5 3.5t-18.5 3.5z" />
<glyph unicode="&#xc8;" horiz-adv-x="753" d="M244 1198v-487h329q16 0 27.5 -11.5t11.5 -27.5t-11 -27.5t-28 -11.5h-329v-529h370q16 0 27.5 -11t11.5 -27t-11 -27.5t-28 -11.5h-409q-16 0 -28.5 11t-12.5 28v1171q0 16 12 27.5t29 11.5h409q16 0 27.5 -11.5t11.5 -27.5t-11 -27.5t-28 -11.5h-370zM281 1667 q-12 10 -13.5 26.5t8.5 28.5t27 13q18 0 29 -11l205 -184q12 -10 13 -26.5t-9 -28.5t-27 -12q-16 0 -29 10z" />
<glyph unicode="&#xc9;" horiz-adv-x="753" d="M244 1198v-487h329q16 0 27.5 -11.5t11.5 -27.5t-11 -27.5t-28 -11.5h-329v-529h370q16 0 27.5 -11t11.5 -27t-11 -27.5t-28 -11.5h-409q-16 0 -28.5 11t-12.5 28v1171q0 16 12 27.5t29 11.5h409q16 0 27.5 -11.5t11.5 -27.5t-11 -27.5t-28 -11.5h-370zM485 1724 q12 10 29 11q16 0 27 -13q10 -12 9 -28.5t-11 -26.5l-205 -184q-12 -10 -31 -10q-16 0 -27 12q-10 12 -9 28.5t14 26.5z" />
<glyph unicode="&#xca;" horiz-adv-x="753" d="M653 66q0 -16 -11 -27.5t-28 -11.5h-409q-39 0 -39 39v1171q0 39 39 39h409q16 0 27.5 -11.5t11.5 -27.5t-11 -27.5t-28 -11.5h-370v-487h329q16 0 27.5 -11.5t11.5 -27.5t-11 -27.5t-28 -11.5h-329v-529h370q16 0 27.5 -11t11.5 -27zM250 1481q-14 -10 -29.5 -8 t-25.5 14q-10 14 -8.5 29.5t14.5 25.5l184 144q25 18 49 0l184 -144q12 -10 14.5 -25.5t-7.5 -29.5q-10 -12 -26.5 -14.5t-29.5 8.5l-65 51l-53 42q-27 22 -41 32q-14 -10 -41 -32l-54 -42z" />
<glyph unicode="&#xcb;" horiz-adv-x="753" d="M244 1198v-487h329q39 0 39 -39t-39 -39h-329v-529h370q39 0 39 -38q0 -39 -39 -39h-409q-39 0 -39 39v1171q0 39 39 39h409q39 0 39 -39t-39 -39h-370zM514 1593q0 25 17.5 42.5t41.5 17.5q25 0 42.5 -17.5t17.5 -42.5t-17.5 -42t-42.5 -17t-42 17t-17 42zM186 1593 q0 25 17.5 42.5t42.5 17.5t42 -17.5t17 -42.5t-17.5 -42t-41.5 -17q-25 0 -42.5 17t-17.5 42z" />
<glyph unicode="&#xcc;" horiz-adv-x="409" d="M334 1540q12 -10 12 -27q0 -16 -10 -28t-27 -12q-16 0 -28 10l-205 184q-12 10 -13 27q0 16 11 28q10 12 26 13q16 0 29 -11zM244 57q0 -39 -39 -39t-39 39v1188q0 39 39 39t39 -39v-1188z" />
<glyph unicode="&#xcd;" horiz-adv-x="409" d="M166 1245q0 39 39 39t39 -39v-1188q0 -39 -39 -39t-39 39v1188zM74 1485q-10 12 -11 28q0 16 13 27l205 184q12 10 28 11q16 0 27 -13q10 -12 10 -28t-12 -27l-205 -184q-12 -10 -29 -10q-16 0 -26 12z" />
<glyph unicode="&#xce;" horiz-adv-x="409" d="M365 1481l-66 51l-53 42q-27 22 -41 32q-14 -10 -41 -32l-53 -42l-66 -51q-14 -10 -29.5 -8t-25.5 14q-10 14 -8 29.5t14 25.5l184 144q25 18 49 0l185 -144q12 -10 14 -25.5t-8 -29.5q-10 -12 -25.5 -14t-29.5 8zM244 57q0 -39 -39 -39t-39 39v1188q0 39 39 39t39 -39 v-1188z" />
<glyph unicode="&#xcf;" horiz-adv-x="409" d="M369 1534q-25 0 -42.5 17.5t-17.5 41.5q0 25 17.5 42.5t42.5 17.5t42 -17.5t17 -42.5t-17 -42t-42 -17zM41 1534q-25 0 -42 17.5t-17 41.5q0 25 17 42.5t42 17.5t42 -17.5t17 -42.5t-17 -42t-42 -17zM205 18q-39 0 -39 39v1188q0 39 39 39t39 -39v-1188q0 -39 -39 -39z " />
<glyph unicode="&#xd0;" horiz-adv-x="903" d="M193 1237q0 16 11 27.5t27 11.5h246q59 0 111.5 -22.5t91.5 -60.5t61.5 -90t22.5 -112v-680q0 -59 -22.5 -111.5t-61.5 -90t-91 -60t-112 -22.5h-246q-16 0 -27 11t-11 28v567h-125q-16 0 -27.5 11t-11.5 28q0 16 11 27.5t28 11.5h125v526zM684 991q0 43 -16.5 81 t-44 65.5t-65.5 44t-81 16.5h-205v-487h164q16 0 28.5 -11.5t12.5 -27.5t-12 -27.5t-29 -11.5h-164v-529h205q43 0 81 16.5t65.5 44.5t44 65.5t16.5 80.5v680z" />
<glyph unicode="&#xd1;" horiz-adv-x="983" d="M786 18q-29 -6 -43 23l-206 428l-84 175l-82 170l-73 149l-54 110v-1016q0 -39 -39 -39q-16 0 -27.5 11.5t-11.5 27.5v1188q0 33 31 39q33 6 43 -22l206 -428l84 -176l82 -170l72 -148l55 -111v1016q0 16 11.5 27.5t27.5 11.5q39 0 39 -39v-1188q0 -33 -31 -39zM340 1548 q-10 -14 -25.5 -18t-27.5 6q-14 10 -18.5 25.5t5.5 29.5q37 57 109 70q66 12 125 -31l16 -12q31 -20 64 -14q37 6 55 34q10 14 25.5 18.5t29.5 -5.5t17.5 -25.5t-6.5 -30.5q-37 -57 -107 -69q-35 -6 -66.5 2t-58.5 28l-16 13q-31 20 -66 14q-37 -6 -55 -35z" />
<glyph unicode="&#xd2;" d="M711 303q0 -59 -22.5 -111.5t-60.5 -90.5t-90.5 -60.5t-111.5 -22.5t-110.5 22.5t-90.5 60.5t-61.5 90.5t-22.5 111.5v696q0 59 22.5 111.5t61.5 90.5t90.5 60.5t110.5 22.5t111.5 -22.5t90.5 -60.5t60.5 -90t22.5 -112v-696zM426 96q43 0 81 16.5t65.5 44t44 65.5 t16.5 81v696q0 43 -16.5 81t-44 66t-65.5 44t-81 16t-80 -16t-65.5 -44t-45 -66t-16.5 -81v-696q0 -43 16.5 -81t45 -65.5t65.5 -44t80 -16.5zM295 1722q10 12 27 13q16 0 28 -11l205 -184q12 -10 13 -26.5t-9 -28.5q-12 -12 -29 -12q-16 0 -28 10l-205 184q-10 10 -11 26.5 t9 28.5z" />
<glyph unicode="&#xd3;" d="M713 303q0 -59 -22.5 -111.5t-61.5 -90.5t-91.5 -60.5t-111.5 -22.5t-110.5 22.5t-90.5 60.5t-61.5 90.5t-22.5 111.5v696q0 59 22.5 111.5t61.5 90.5t90.5 60.5t110.5 22.5t111.5 -22.5t91.5 -60.5t61.5 -90t22.5 -112v-696zM426 96q43 0 81 16.5t65.5 44t44 65.5 t16.5 81v696q0 43 -16.5 81t-44 66t-65.5 44t-81 16t-80 -16t-64.5 -44t-44 -66t-16.5 -81v-696q0 -43 16.5 -81t44 -65.5t64.5 -44t80 -16.5zM350 1483q-12 -10 -28 -10t-27 12q-10 12 -9 28.5t13 26.5l205 184q10 10 26 11q18 0 29 -13q10 -12 9 -28.5t-13 -26.5z" />
<glyph unicode="&#xd4;" d="M713 303q0 -59 -22.5 -111.5t-61.5 -90.5t-91.5 -60.5t-111.5 -22.5t-110.5 22.5t-90.5 60.5t-61.5 90.5t-22.5 111.5v696q0 59 22.5 111.5t61.5 90.5t90.5 60.5t110.5 22.5t111.5 -22.5t91.5 -60.5t61.5 -90t22.5 -112v-696zM426 96q43 0 81 16.5t65.5 44t44 65.5 t16.5 81v696q0 43 -16.5 81t-44 66t-65.5 44t-81 16t-80 -16t-64.5 -44t-44 -66t-16.5 -81v-696q0 -43 16.5 -81t44 -65.5t64.5 -44t80 -16.5zM635 1542q14 -10 16 -25.5t-8 -29.5q-10 -12 -26.5 -14.5t-28.5 8.5l-68 51q-29 20 -54.5 41.5l-39.5 32.5q-14 -10 -40 -32 l-52 -42q-31 -25 -68 -51q-12 -10 -28.5 -8t-26.5 14q-10 14 -8 29.5t16 25.5l184 144q23 16 48 0z" />
<glyph unicode="&#xd5;" d="M711 303q0 -59 -22.5 -111.5t-61.5 -90.5t-91.5 -60.5t-109.5 -22.5q-59 0 -111.5 22.5t-91.5 60.5t-61.5 90.5t-22.5 111.5v696q0 59 22.5 111.5t61.5 90.5t91.5 60.5t111.5 22.5q57 0 109.5 -22.5t91.5 -60.5t61.5 -90t22.5 -112v-696zM426 96q43 0 80 16.5t64.5 44 t44 65.5t16.5 81v696q0 43 -16.5 81t-44 66t-64.5 44t-80 16t-81 -16t-65.5 -44t-44 -66t-16.5 -81v-696q0 -43 16.5 -81t44 -65.5t65.5 -44t81 -16.5zM209 1591q37 57 106 70q35 6 67 -2t58 -29l17 -12q31 -20 65 -14q33 6 56 34q10 14 24 18.5t29 -5.5q14 -10 18 -25.5 t-6 -30.5q-37 -57 -108 -69q-66 -12 -125 30l-17 13q-31 20 -63 14q-37 -6 -56 -35q-10 -14 -25.5 -18t-29.5 6t-17 25.5t7 29.5z" />
<glyph unicode="&#xd6;" d="M711 303q0 -59 -22.5 -111.5t-61.5 -90.5t-91.5 -60.5t-109.5 -22.5q-59 0 -111.5 22.5t-91.5 60.5t-61.5 90.5t-22.5 111.5v696q0 59 22.5 111.5t61.5 90.5t91.5 60.5t111.5 22.5q57 0 109.5 -22.5t91.5 -60.5t61.5 -90t22.5 -112v-696zM426 96q43 0 80 16.5t64.5 44 t44 65.5t16.5 81v696q0 43 -16.5 81t-44 66t-64.5 44t-80 16t-81 -16t-65.5 -44t-44 -66t-16.5 -81v-696q0 -43 16.5 -81t44 -65.5t65.5 -44t81 -16.5zM649 1593q0 -25 -17.5 -42t-41.5 -17q-27 0 -44.5 17.5t-17.5 41.5q0 25 17.5 42.5t44.5 17.5q25 0 42 -17.5t17 -42.5z M322 1593q0 -25 -17.5 -42t-42.5 -17q-27 0 -44 17.5t-17 41.5q0 25 17.5 42.5t43.5 17.5q25 0 42.5 -17.5t17.5 -42.5z" />
<glyph unicode="&#xd7;" d="M659 823q25 -29 0 -57l-178 -176l178 -176q25 -29 0 -58q-29 -25 -57 0l-176 179l-176 -179q-29 -25 -57 0q-25 29 0 58l178 176l-178 176q-25 29 0 57q29 25 57 0l176 -178l176 178q28 25 57 0z" />
<glyph unicode="&#xd8;" horiz-adv-x="872" d="M823 1362q14 -8 19.5 -23.5t-2.5 -29.5l-129 -236q10 -37 10 -74v-696q0 -59 -22.5 -111.5t-60.5 -90.5t-90 -60.5t-112 -22.5q-72 0 -133 33t-100 88l-101 -182q-8 -16 -23.5 -20.5t-29.5 4.5q-16 8 -20 23.5t4 29.5l127 235q-8 31 -8 74v696q0 59 22.5 111.5t60 90.5 t90 60.5t111.5 22.5q72 0 133.5 -32.5t100.5 -90.5l100 185q8 14 23.5 19t29.5 -3zM436 1206q-43 0 -81 -16t-65.5 -44t-44 -66t-16.5 -81v-645l396 727q-23 55 -74.5 90t-114.5 35zM436 96q43 0 80 16.5t65.5 44t45 65.5t16.5 81v645l-397 -727q25 -55 74.5 -90t115.5 -35z " />
<glyph unicode="&#xd9;" horiz-adv-x="868" d="M434 18q-59 0 -111.5 22.5t-90 60.5t-60 90.5t-22.5 111.5v942q0 39 38 39q16 0 27.5 -11t11.5 -28v-942q0 -43 16.5 -81t44 -65.5t65.5 -44t81 -16.5t80 16.5t65.5 44t45 65.5t16.5 81v942q0 39 39 39q16 0 27.5 -11t11.5 -28v-942q0 -59 -22.5 -111.5t-60.5 -90.5 t-90.5 -60.5t-111.5 -22.5zM303 1722q10 12 27 13q16 0 28 -11l205 -184q12 -10 12 -27q0 -16 -10 -28t-26 -12t-29 10l-205 184q-12 10 -12 27q0 16 10 28z" />
<glyph unicode="&#xda;" horiz-adv-x="868" d="M719 303q0 -59 -22.5 -111.5t-60.5 -90.5t-90 -60.5t-112 -22.5q-59 0 -111.5 22.5t-90 60.5t-60 90.5t-22.5 111.5v942q0 39 38 39q39 0 39 -39v-942q0 -43 16.5 -81t44 -65.5t65.5 -44t81 -16.5t81 16.5t65.5 44t44 65.5t16.5 81v942q0 39 39 39t39 -39v-942zM510 1724 q12 10 29 11q16 0 26 -13q10 -12 10 -28t-12 -27l-205 -184q-12 -10 -28 -10t-27 12q-10 12 -10 28t12 27z" />
<glyph unicode="&#xdb;" horiz-adv-x="868" d="M721 303q0 -59 -22.5 -111.5t-61.5 -90.5t-91 -60.5t-112 -22.5q-59 0 -110.5 22.5t-90 60.5t-61 90.5t-22.5 111.5v942q0 16 11 27.5t27 11.5t28.5 -11t12.5 -28v-942q0 -43 16.5 -81t44 -65.5t64.5 -44t80 -16.5t81 16.5t65.5 44t44 65.5t16.5 81v942q0 16 11.5 27.5 t27.5 11.5t28.5 -11t12.5 -28v-942zM643 1542q14 -10 16.5 -25.5t-8.5 -29.5q-10 -12 -26.5 -14.5t-28.5 8.5l-68 51q-29 20 -54 41.5t-40 32.5q-14 -10 -40 -32l-52 -42q-31 -25 -68 -51q-12 -10 -28.5 -8t-26.5 14q-10 14 -8 29.5t16 25.5l185 144q23 18 47 0z" />
<glyph unicode="&#xdc;" horiz-adv-x="868" d="M434 18q-59 0 -110.5 22.5t-90 60.5t-61 90.5t-22.5 111.5v942q0 16 11 27.5t27 11.5t28.5 -11t12.5 -28v-942q0 -43 16.5 -81t44 -65.5t64.5 -44t80 -16.5t81 16.5t65.5 44t44 65.5t16.5 81v942q0 16 11.5 27.5t27.5 11.5t28.5 -11t12.5 -28v-942q0 -59 -22.5 -111.5 t-61.5 -90.5t-91.5 -60.5t-111.5 -22.5zM539 1593q0 25 17 42.5t42 17.5t43 -17.5t18 -42.5t-18 -42t-43 -17t-42 17t-17 42zM270 1534q-25 0 -42 17.5t-17 41.5q0 25 17.5 42.5t41.5 17.5q25 0 43.5 -17.5t18.5 -42.5t-18.5 -42t-43.5 -17z" />
<glyph unicode="&#xdd;" horiz-adv-x="823" d="M160 1264l106 -211l83 -169l63 -124l63 124l84 169l105 211q8 14 22 19t31 -3q14 -8 19 -22.5t-3 -30.5l-282 -565v-605q0 -39 -39 -39q-16 0 -27.5 11.5t-11.5 27.5v605l-283 565q-8 16 -3 30.5t22 22.5q14 8 29.5 3t21.5 -19zM336 1483q-12 -10 -29 -10q-16 0 -26 12 t-11 28q0 16 13 27l204 184q12 10 29 11q16 0 27 -13q12 -12 11 -28.5t-13 -26.5z" />
<glyph unicode="&#xde;" horiz-adv-x="819" d="M451 1018q57 0 109 -22.5t91 -60.5t61.5 -90t22.5 -112v-123q0 -59 -22.5 -111.5t-61.5 -90t-91 -60t-109 -22.5h-207v-269q0 -16 -11.5 -27.5t-27.5 -11.5t-28.5 11.5t-12.5 27.5v1180q0 16 12 27.5t29 11.5q16 0 27.5 -11.5t11.5 -27.5v-219h207zM451 403 q43 0 79.5 16.5t64.5 44.5t44 65.5t16 80.5v123q0 43 -16 81t-44 65.5t-64.5 44t-79.5 16.5h-207v-537h207z" />
<glyph unicode="&#xdf;" horiz-adv-x="876" d="M733 303q0 -59 -22.5 -110.5t-60.5 -89t-90 -60.5t-109 -23q-16 0 -26.5 10.5t-10.5 26.5t10 26.5t27 10.5q43 0 80.5 16.5t66.5 45t45 66.5t16 81v328q0 43 -16 81t-45 66.5t-66.5 45t-80.5 16.5q-31 0 -37 28q-4 31 22 43l37 15q43 18 71.5 55t33.5 84q4 47 -15.5 88 t-60.5 68q-39 27 -85 28.5t-87 -20.5q-41 -23 -64.5 -62t-23.5 -86v-1024q0 -16 -10.5 -26.5t-26.5 -10.5t-26.5 10.5t-10.5 26.5v1024q0 68 34 124.5t93 88.5q59 33 125.5 29t122.5 -41q51 -35 79.5 -88t28.5 -113q0 -16 -2 -22q-10 -102 -90 -168q78 -33 126 -102.5 t48 -157.5v-328z" />
<glyph unicode="&#xe0;" horiz-adv-x="720" d="M328 29q-49 0 -93.5 19.5t-77 52t-52 76.5t-19.5 93t19.5 93.5t52 77t77 52t93.5 19.5h168v164q0 49 -28 90t-75 61q-47 18 -95 9t-83 -43q-10 -12 -27 -13q-14 0 -24 13q-10 10 -10 24q0 16 10 27q51 51 121.5 65.5t136.5 -14.5q68 -29 107.5 -88t39.5 -131v-610 q0 -16 -10 -26.5t-27 -10.5h-204zM328 438q-72 0 -120 -49t-48 -119t48 -119t120 -49h168v336h-168zM496 1128q10 -10 11 -25.5t-9 -25.5t-25.5 -11t-26.5 9l-204 185q-12 10 -13.5 25t9.5 26q10 10 25.5 11t27.5 -9z" />
<glyph unicode="&#xe1;" horiz-adv-x="720" d="M569 66q0 -16 -10 -26.5t-27 -10.5h-204q-49 0 -93.5 19.5t-77 52t-52 76.5t-19.5 93t19.5 93.5t52 77t77 52t93.5 19.5h168v164q0 49 -28 90t-75 61q-47 18 -95 9t-83 -43q-10 -12 -27 -13q-14 0 -24 13q-10 10 -10 24q0 16 10 27q51 51 121.5 65.5t136.5 -14.5 q68 -29 107.5 -88t39.5 -131v-610zM160 270q0 -70 49 -119t119 -49h168v336h-168q-70 0 -119 -49t-49 -119zM291 1075q-12 -10 -27.5 -9t-25.5 11t-9.5 25.5t13.5 25.5l204 185q10 10 25.5 9t26.5 -11q10 -10 9 -25.5t-11 -25.5z" />
<glyph unicode="&#xe2;" horiz-adv-x="720" d="M496 512v164q0 49 -28 90t-75 61q-47 18 -95 9t-83 -43q-10 -12 -27 -13q-14 0 -24 13q-10 10 -10 24q0 16 10 27q51 51 121.5 65.5t136.5 -14.5q68 -29 107.5 -88t39.5 -131v-610q0 -16 -10 -26.5t-27 -10.5h-204q-49 0 -93.5 19.5t-77 52t-52 76.5t-19.5 93t19.5 93.5 t52 77t77 52t93.5 19.5h168zM160 270q0 -70 49 -119t119 -49h168v336h-168q-70 0 -119 -49t-49 -119zM346 1274q20 16 45 0l184 -144q12 -10 14.5 -24t-7.5 -27q-10 -12 -24.5 -14t-27.5 8l-67 53l-55 42q-27 19 -39 30l-40 -30l-55 -42l-67 -53q-12 -10 -26.5 -8t-24.5 14 t-8 26.5t14 24.5z" />
<glyph unicode="&#xe3;" horiz-adv-x="720" d="M328 29q-49 0 -93.5 19.5t-77 52t-52 76.5t-19.5 93t19.5 93.5t52 77t77 52t93.5 19.5h168v164q0 49 -27 90t-74 61q-47 18 -96 9t-84 -43q-10 -12 -27 -13q-14 0 -24 13q-10 10 -10 24q0 16 10 27q51 51 121.5 65.5t136.5 -14.5q68 -29 107.5 -88t39.5 -131v-610 q0 -16 -10 -26.5t-27 -10.5h-204zM328 438q-70 0 -119 -49t-49 -119t49 -119t119 -49h168v336h-168zM573 1239q12 -10 15.5 -24.5t-4.5 -26.5q-39 -57 -107 -70q-63 -12 -123 31l-16 12q-27 20 -66 15q-39 -6 -57 -37q-10 -12 -24.5 -15.5t-26.5 4.5q-12 10 -16.5 24.5 t6.5 27.5q39 57 106 69q63 12 123 -30l16 -13q27 -20 66 -14t57 37q8 12 23.5 15t27.5 -5z" />
<glyph unicode="&#xe4;" horiz-adv-x="720" d="M496 512v164q0 49 -27 90t-74 61q-47 18 -96 9t-84 -43q-10 -12 -27 -13q-14 0 -24 13q-10 10 -10 24q0 16 10 27q51 51 121.5 65.5t136.5 -14.5q68 -29 107.5 -88t39.5 -131v-610q0 -16 -10 -26.5t-27 -10.5h-204q-49 0 -93.5 19.5t-77 52t-52 76.5t-19.5 93t19.5 93.5 t52 77t77 52t93.5 19.5h168zM160 270q0 -70 49 -119t119 -49h168v336h-168q-70 0 -119 -49t-49 -119zM475 1184q0 23 16.5 40t40.5 17q23 0 40.5 -17.5t17.5 -39.5q0 -23 -17.5 -40.5t-40.5 -17.5q-25 0 -41 17.5t-16 40.5zM205 1126q-25 0 -41.5 17.5t-16.5 40.5t16.5 40 t41.5 17q23 0 40 -17.5t17 -39.5q0 -23 -17 -40.5t-40 -17.5z" />
<glyph unicode="&#xe5;" horiz-adv-x="720" d="M369 1360q66 0 110.5 -45t44.5 -111t-45 -110.5t-110 -44.5q-66 0 -111 45t-45 110q0 66 45 111t111 45zM369 1114q37 0 63.5 26.5t26.5 63.5t-26.5 63.5t-63.5 26.5t-63.5 -26.5t-26.5 -63.5t26.5 -63.5t63.5 -26.5zM328 29q-49 0 -93.5 19.5t-77 52t-52 76.5t-19.5 93 t19.5 93.5t52 77t77 52t93.5 19.5h168v164q0 49 -27 90t-74 61q-47 18 -96 9t-84 -43q-10 -12 -27 -13q-14 0 -24 13q-10 10 -10 24q0 16 10 27q51 51 121.5 65.5t136.5 -14.5q68 -29 107.5 -88t39.5 -131v-610q0 -16 -10 -26.5t-27 -10.5h-204zM328 438q-70 0 -119 -49 t-49 -119t49 -119t119 -49h168v336h-168z" />
<glyph unicode="&#xe6;" horiz-adv-x="1107" d="M535 133q-41 -63 -113 -94q-68 -29 -139.5 -14.5t-124.5 67.5q-53 51 -66.5 123t14.5 139q29 68 89.5 109t134.5 41h168v168q0 51 -29 93t-76 62q-47 18 -97 8t-85 -44q-10 -10 -27 -11q-16 0 -26 11q-10 10 -11 24q0 16 11 27q53 53 124.5 67.5t139.5 -14.5 q72 -31 113 -94q33 51 86 81.5t118 30.5q49 0 93.5 -19.5t77 -52t52 -76.5t19.5 -93v-205q0 -16 -10 -26.5t-27 -10.5h-373v-168q0 -51 28 -93t75 -63q47 -20 97 -10t87 47q10 10 25 11q16 0 26 -11q10 -10 11 -26q0 -14 -11 -25q-53 -53 -123.5 -67.5t-138.5 14.5 q-75 31 -112 94zM571 504h336v168q0 70 -49 119t-119 49t-119 -49.5t-49 -118.5v-168zM211 143q35 -37 85 -47t97 10t76 62.5t29 93.5v168h-168q-53 0 -94 -28.5t-62 -75.5q-20 -47 -10 -96.5t47 -86.5z" />
<glyph unicode="&#xe7;" horiz-adv-x="677" d="M293 895q68 29 139.5 14.5t124.5 -67.5q10 -10 10 -27q0 -14 -10 -24t-27 -11q-16 0 -26 11q-35 35 -85 45t-97 -9q-47 -20 -76 -62t-29 -93v-410q0 -51 28.5 -93t76.5 -63q31 -12 63 -12h2q68 0 117 49q10 10 26 11q16 0 27 -11q10 -10 10 -26q0 -14 -10 -25 q-57 -57 -135 -69v-91q0 -53 -26.5 -100t-73.5 -74q-14 -8 -28.5 -4t-21.5 17q-8 14 -5 28.5t18 22.5q29 16 46 46t17 64v91q-14 4 -27.5 7t-27.5 9q-68 29 -109 89t-41 134v410q0 74 41 134t109 89z" />
<glyph unicode="&#xe8;" horiz-adv-x="753" d="M557 92q-53 -53 -125 -67.5t-139 14.5q-68 29 -109 89t-41 134v410q0 49 19.5 93t52.5 76.5t77 52t93 19.5t93 -19.5t77 -52t52.5 -76.5t19.5 -93v-205q0 -16 -10.5 -26.5t-26.5 -10.5h-373v-168q0 -51 28.5 -93t76.5 -63q47 -20 97 -10t85 47q10 10 26 11q16 0 27 -11 q10 -10 10 -26q0 -15 -10 -25zM385 840q-70 0 -119 -49.5t-49 -118.5v-168h336v168q0 70 -49 119t-119 49zM512 1128q12 -10 13 -25.5t-9 -25.5t-25.5 -11t-27.5 9l-205 185q-10 10 -11 25t9 26q10 10 25.5 11t25.5 -9z" />
<glyph unicode="&#xe9;" horiz-adv-x="753" d="M557 143q10 -10 10 -26q0 -14 -10 -25q-53 -53 -125 -67.5t-139 14.5q-68 29 -109 89t-41 134v410q0 49 19.5 93t52.5 76.5t77 52t93 19.5t93 -19.5t77 -52t52.5 -76.5t19.5 -93v-205q0 -16 -10.5 -26.5t-26.5 -10.5h-373v-168q0 -51 28.5 -93t76.5 -63q47 -20 97 -10 t85 47q10 10 26 11q17 -1 27 -11zM385 840q-70 0 -119 -49.5t-49 -118.5v-168h336v168q0 70 -49 119t-119 49zM463 1313q12 10 27.5 9t25.5 -11t9 -25.5t-13 -25.5l-205 -185q-10 -10 -25.5 -9t-25.5 11t-9 25.5t11 25.5z" />
<glyph unicode="&#xea;" horiz-adv-x="753" d="M293 39q-68 29 -109 89t-41 134v410q0 49 19.5 93t52.5 76.5t77 52t93 19.5t93 -19.5t77 -52t52.5 -76.5t19.5 -93v-205q0 -16 -10.5 -26.5t-26.5 -10.5h-373v-168q0 -51 28.5 -93t76.5 -63q47 -20 97 -10t85 47q10 10 26 11q16 0 27 -11q10 -10 10 -26q0 -14 -10 -25 q-53 -53 -124.5 -67.5t-139.5 14.5zM385 840q-70 0 -119 -49.5t-49 -118.5v-168h336v168q0 70 -48 119t-120 49zM223 1073q-10 -10 -25.5 -8t-25.5 14t-8 26.5t14 24.5l184 144q25 16 46 0l184 -144q12 -10 15 -24t-7 -27q-10 -12 -25.5 -14t-27.5 8l-68 53l-55 42 q-27 19 -39 30l-40 -30l-54 -42z" />
<glyph unicode="&#xeb;" horiz-adv-x="753" d="M143 672q0 49 19.5 93t52.5 76.5t77 52t93 19.5t93 -19.5t77 -52t52.5 -76.5t19.5 -93v-205q0 -16 -10.5 -26.5t-26.5 -10.5h-373v-168q0 -51 28.5 -93t76.5 -63q47 -20 97 -10t85 47q10 10 26 11q16 0 27 -11q10 -10 10 -26q0 -14 -10 -25q-53 -53 -125 -67.5t-139 14.5 q-68 29 -109 89t-41 134v410zM385 840q-70 0 -119 -49.5t-49 -118.5v-168h336v168q0 70 -48 119t-120 49zM279 1184q0 -23 -16.5 -40.5t-41.5 -17.5q-23 0 -40 17.5t-17 40.5t17.5 40t39.5 17q25 0 41.5 -17t16.5 -40zM549 1126q-23 0 -40 17.5t-17 40.5t17 40t40 17 q25 0 41 -17.5t16 -39.5q0 -23 -16 -40.5t-41 -17.5z" />
<glyph unicode="&#xec;" horiz-adv-x="409" d="M295 1077q-10 -10 -25.5 -11t-27.5 9l-205 185q-10 10 -11 25t9 26q10 10 25.5 11t27.5 -9l205 -185q10 -10 11 -25.5t-9 -25.5zM205 913q16 0 26.5 -10t10.5 -26v-820q0 -16 -10.5 -26.5t-26.5 -10.5q-14 0 -25.5 10.5t-11.5 26.5v820q0 16 11.5 26t25.5 10z" />
<glyph unicode="&#xed;" horiz-adv-x="409" d="M168 877q0 16 10 26t27 10q16 0 26.5 -10t10.5 -26v-820q0 -16 -10.5 -26.5t-26.5 -10.5t-26.5 10.5t-10.5 26.5v820zM375 1311q10 -10 9 -25.5t-11 -25.5l-205 -185q-12 -10 -27.5 -9t-25.5 11t-9.5 25.5t13.5 25.5l205 185q10 10 25.5 9t25.5 -11z" />
<glyph unicode="&#xee;" horiz-adv-x="409" d="M-8 1079q-10 12 -7 26.5t15 24.5l184 144q20 16 45 0l185 -144q12 -10 14 -24t-8 -27q-10 -12 -25.5 -14t-25.5 8l-68 53l-55 42q-27 19 -39 30l-40 -30l-54 -42l-68 -53q-12 -10 -27.5 -8t-25.5 14zM244 57q0 -16 -10.5 -26.5t-26.5 -10.5t-26.5 10.5t-10.5 26.5v820 q0 16 10 26t27 10q16 0 26.5 -10t10.5 -26v-820z" />
<glyph unicode="&#xef;" horiz-adv-x="409" d="M98 1184q0 -23 -17.5 -40.5t-39.5 -17.5q-25 0 -41 17.5t-16 40.5t16 40t41 17q23 0 40 -17t17 -40zM369 1126q-25 0 -41.5 17.5t-16.5 40.5t16.5 40t41.5 17q23 0 40 -17.5t17 -39.5q0 -23 -17 -40.5t-40 -17.5zM205 20q-16 0 -26.5 10.5t-10.5 26.5v820q0 16 10 26 t27 10q16 0 26.5 -10t10.5 -26v-820q0 -16 -10.5 -26.5t-26.5 -10.5z" />
<glyph unicode="&#xf0;" horiz-adv-x="770" d="M627 262q0 -49 -19.5 -93t-52.5 -77t-77 -52.5t-93 -19.5t-93 19.5t-77 52.5t-52.5 77t-19.5 93v410q0 49 19.5 93t52.5 76.5t77 52t93 19.5q78 0 139 -45q-20 70 -54 134.5t-81 119.5l-106 -71q-12 -10 -26.5 -6t-25.5 16q-8 12 -5 26.5t16 24.5l96 64q-23 23 -47.5 42 t-50.5 37q-12 8 -15.5 23.5t4.5 28.5q23 29 52 10q68 -45 120 -98l86 57q12 8 27.5 5t24.5 -15q10 -12 6 -27.5t-17 -24.5l-77 -51q49 -57 84 -125q47 -86 69.5 -178t22.5 -188v-410zM385 94q70 0 119 49.5t49 118.5v410q0 70 -49 119t-119 49t-119 -49.5t-49 -118.5v-410 q0 -70 49 -119t119 -49z" />
<glyph unicode="&#xf1;" horiz-adv-x="802" d="M563 1229q8 12 22.5 15t28.5 -5q12 -10 15.5 -24.5t-4.5 -26.5q-37 -57 -107 -70q-33 -6 -64.5 2t-58.5 29l-16 12q-27 20 -66 15q-39 -6 -57 -37q-10 -12 -24.5 -15.5t-26.5 4.5q-12 10 -16.5 24.5t6.5 27.5q39 57 106 69q63 12 123 -30l16 -13q27 -20 66 -14 q37 6 57 37zM410 905q49 0 93 -19.5t76.5 -52t52 -76.5t19.5 -93v-607q0 -16 -10 -26.5t-27 -10.5q-16 0 -26 10.5t-10 26.5v607q0 70 -49.5 118.5t-118.5 48.5h-168v-774q0 -16 -10.5 -26.5t-26.5 -10.5t-26.5 10.5t-10.5 26.5v811q0 16 10 26.5t27 10.5h205z" />
<glyph unicode="&#xf2;" horiz-adv-x="770" d="M258 1260q-12 10 -13 25t9 26q10 10 26.5 11t26.5 -9l205 -185q10 -10 11 -25.5t-9 -25.5t-25.5 -11t-25.5 9zM627 262q0 -49 -19.5 -93t-52.5 -77t-77 -52.5t-93 -19.5t-93 19.5t-77 52.5t-52.5 77t-19.5 93v410q0 49 19.5 93t52.5 76.5t77 52t93 19.5t93 -19.5t77 -52 t52.5 -76.5t19.5 -93v-410zM385 94q70 0 119 49.5t49 118.5v410q0 70 -49 119t-119 49t-119 -49.5t-49 -118.5v-410q0 -70 49 -119t119 -49z" />
<glyph unicode="&#xf3;" horiz-adv-x="770" d="M256 1077q-10 10 -9 25.5t11 25.5l205 185q10 10 25.5 9t25.5 -11t9 -25.5t-11 -25.5l-205 -185q-10 -10 -25.5 -9t-25.5 11zM627 262q0 -49 -19.5 -93t-52.5 -77t-77 -52.5t-93 -19.5t-93 19.5t-77 52.5t-52.5 77t-19.5 93v410q0 49 19.5 93t52.5 76.5t77 52t93 19.5 t93 -19.5t77 -52t52.5 -76.5t19.5 -93v-410zM385 94q70 0 119 49.5t49 118.5v410q0 70 -49 119t-119 49t-119 -49.5t-49 -118.5v-410q0 -70 49 -119t119 -49z" />
<glyph unicode="&#xf4;" horiz-adv-x="770" d="M223 1073q-12 -10 -26.5 -8t-24.5 14t-8 26.5t14 24.5l184 144q23 18 46 0l184 -144q12 -10 14 -24t-8 -27q-10 -12 -24.5 -14t-26.5 8l-68 53l-55 42q-27 19 -39 30l-40 -30l-54 -42zM143 672q0 49 19.5 93t52.5 76.5t77 52t93 19.5t93 -19.5t77 -52t52.5 -76.5 t19.5 -93v-410q0 -49 -19.5 -93t-52.5 -77t-77 -52.5t-93 -19.5t-93 19.5t-77 52.5t-52.5 77t-19.5 93v410zM385 840q-70 0 -119 -49.5t-49 -118.5v-410q0 -70 49 -119t119 -49t119 49.5t49 118.5v410q0 70 -49 119t-119 49z" />
<glyph unicode="&#xf5;" horiz-adv-x="770" d="M231 1139q-8 -12 -23 -15.5t-28 4.5q-29 23 -10 52q39 57 106 69q70 10 123 -30l17 -13q27 -20 65 -14q39 6 58 37q23 29 51 10q12 -10 16 -24.5t-6 -26.5q-39 -57 -106 -70q-63 -12 -123 31l-17 12q-27 20 -65 15q-35 -6 -58 -37zM627 262q0 -49 -19.5 -93t-52.5 -77 t-77 -52.5t-93 -19.5t-93 19.5t-77 52.5t-52.5 77t-19.5 93v410q0 49 19.5 93t52.5 76.5t77 52t93 19.5t93 -19.5t77 -52t52.5 -76.5t19.5 -93v-410zM385 94q70 0 119 49.5t49 118.5v410q0 70 -49 119t-119 49t-119 -49.5t-49 -118.5v-410q0 -70 49 -119t119 -49z" />
<glyph unicode="&#xf6;" horiz-adv-x="770" d="M279 1184q0 -23 -17.5 -40.5t-40.5 -17.5t-40 17.5t-17 40.5t17.5 40t39.5 17q23 0 40.5 -17t17.5 -40zM606 1184q0 -23 -17.5 -40.5t-39.5 -17.5q-23 0 -40 17.5t-17 40.5t17 40t40 17t40 -17t17 -40zM627 262q0 -49 -19.5 -93t-52.5 -77t-77 -52.5t-93 -19.5t-93 19.5 t-77 52.5t-52.5 77t-19.5 93v410q0 49 19.5 93t52.5 76.5t77 52t93 19.5t93 -19.5t77 -52t52.5 -76.5t19.5 -93v-410zM385 94q70 0 119 49.5t49 118.5v410q0 70 -49 119t-119 49t-119 -49.5t-49 -118.5v-410q0 -70 49 -119t119 -49z" />
<glyph unicode="&#xf7;" d="M365 324q0 25 17 42t44 17q25 0 42 -17.5t17 -41.5q0 -25 -17 -42.5t-42 -17.5q-27 0 -44 17.5t-17 42.5zM426 797q-27 0 -44 17t-17 42t17 42t44 17q25 0 42 -17t17 -42t-17 -42t-42 -17zM711 590q0 -16 -11.5 -27.5t-27.5 -11.5h-492q-16 0 -28.5 11t-12.5 28 q0 16 12.5 27.5t28.5 11.5h492q16 0 27.5 -11.5t11.5 -27.5z" />
<glyph unicode="&#xf8;" horiz-adv-x="790" d="M154 672q0 49 19.5 93t52 76.5t76.5 52t93 19.5q51 0 96.5 -19.5t77.5 -53.5l80 137q8 14 22.5 18t28.5 -6q14 -8 18.5 -22.5t-5.5 -26.5l-99 -168q23 -49 23 -100v-410q0 -49 -19.5 -93t-52.5 -77t-77 -52.5t-93 -19.5q-51 0 -96 19.5t-78 54.5l-82 -137 q-8 -14 -22.5 -18.5t-26.5 4.5q-14 8 -18 22.5t4 28.5l98 168q-20 51 -20 100v410zM395 94q70 0 119 49.5t49 118.5v410v10l-303 -520q23 -31 58.5 -49.5t76.5 -18.5zM395 840q-70 0 -119 -49.5t-49 -118.5v-410v-10l303 520q-23 31 -58.5 49.5t-76.5 18.5z" />
<glyph unicode="&#xf9;" horiz-adv-x="802" d="M264 1311q10 10 25.5 11t25.5 -9l205 -185q12 -10 13.5 -25.5t-9.5 -25.5q-10 -10 -25.5 -11t-27.5 9l-205 185q-10 10 -11 25.5t9 25.5zM393 29q-49 0 -93 19.5t-77 52t-52 76.5t-19 93v607q0 16 10 26t26 10t26.5 -10t10.5 -26v-607q0 -70 49.5 -119t118.5 -49h168v775 q0 16 10.5 26t26.5 10t26.5 -10t10.5 -26v-811q0 -16 -10.5 -26.5t-26.5 -10.5h-205z" />
<glyph unicode="&#xfa;" horiz-adv-x="802" d="M471 1313q12 10 27.5 9t25.5 -11t9 -25.5t-13 -25.5l-205 -185q-10 -10 -25.5 -9t-25.5 11t-9 25.5t11 25.5zM635 66q0 -16 -10.5 -26.5t-26.5 -10.5h-205q-49 0 -93 19.5t-77 52t-52 76.5t-19 93v607q0 16 10 26t26 10t26.5 -10t10.5 -26v-607q0 -70 49.5 -119 t118.5 -49h168v775q0 16 10.5 26t26.5 10t26.5 -10t10.5 -26v-811z" />
<glyph unicode="&#xfb;" horiz-adv-x="802" d="M231 1073q-10 -10 -25.5 -8t-25.5 14t-7 26.5t13 24.5l185 144q25 16 45 0l184 -144q12 -10 15 -24t-7 -27q-10 -12 -25.5 -14t-27.5 8l-68 53l-55 42q-27 19 -39 30l-40 -30l-54 -42zM152 877q0 16 10 26t26 10t26.5 -10t10.5 -26v-607q0 -70 49.5 -119t118.5 -49h168 v775q0 16 10.5 26t26.5 10t26.5 -10t10.5 -26v-811q0 -16 -10.5 -26.5t-26.5 -10.5h-205q-49 0 -93 19.5t-77 52t-52 76.5t-19 93v607z" />
<glyph unicode="&#xfc;" horiz-adv-x="802" d="M172 1184q0 23 17.5 40t39.5 17q25 0 41.5 -17.5t16.5 -39.5q0 -23 -16.5 -40.5t-41.5 -17.5q-23 0 -40 17.5t-17 40.5zM500 1184q0 23 17.5 40t39.5 17q25 0 41 -17.5t16 -39.5q0 -23 -16 -40.5t-41 -17.5q-23 0 -40 17.5t-17 40.5zM393 29q-49 0 -93 19.5t-77 52 t-52 76.5t-19 93v607q0 16 11 26t25 10q16 0 26.5 -10t10.5 -26v-607q0 -70 49.5 -119t118.5 -49h168v775q0 16 11.5 26t25.5 10q16 0 26.5 -10t10.5 -26v-811q0 -16 -10.5 -26.5t-26.5 -10.5h-205z" />
<glyph unicode="&#xfd;" horiz-adv-x="755" d="M248 1077q-10 10 -9 25.5t13 25.5l205 185q10 10 25.5 9t25.5 -11t9 -25.5t-11 -25.5l-205 -185q-12 -10 -27.5 -9t-25.5 11zM379 186l209 701q4 16 17 22t30 2q14 -4 21.5 -17t2.5 -28l-245 -819l-80 -264q-20 -74 -86 -125q-66 -47 -146 -47q-16 0 -26 10t-10 27 q0 16 10 26.5t26 10.5q55 0 101 32q47 37 61 86l76 254l-244 809q-4 14 3 27.5t22 17.5q16 4 29.5 -2t17.5 -22z" />
<glyph unicode="&#xfe;" horiz-adv-x="794" d="M242 -352q0 -16 -10.5 -26.5t-26.5 -10.5t-26.5 10t-10.5 27v1638q0 16 10 26.5t27 10.5q16 0 26.5 -10t10.5 -27v-373h168q49 0 93 -19.5t76.5 -52t52 -76.5t19.5 -93v-410q0 -49 -19.5 -93t-52 -77t-76.5 -52.5t-93 -19.5h-168v-372zM242 840v-746h168q70 0 119 49.5 t49 118.5v410q0 70 -49.5 119t-118.5 49h-168z" />
<glyph unicode="&#xff;" horiz-adv-x="755" d="M600 1184q0 -23 -17.5 -40.5t-39.5 -17.5q-25 0 -41.5 17.5t-16.5 40.5t16.5 40t41.5 17q23 0 40 -17t17 -40zM215 1126q-25 0 -41 17.5t-16 40.5t16 40t41 17q23 0 40 -17.5t17 -39.5q0 -23 -17 -40.5t-40 -17.5zM334 -217q-20 -74 -86 -125q-66 -47 -146 -47 q-16 0 -26 10t-10 27q0 16 10 26.5t26 10.5q55 0 101 32q47 37 61 86l76 254l-244 809q-4 14 3 27.5t22 17.5q16 4 29.5 -2t17.5 -22l211 -701l209 701q4 16 17 22t30 2q14 -4 21.5 -17t2.5 -28l-245 -819z" />
<glyph unicode="&#x152;" horiz-adv-x="1220" d="M633 106q-41 -41 -94.5 -64.5t-112.5 -23.5t-111.5 22.5t-90.5 60.5t-60.5 90.5t-22.5 111.5v696q0 59 22.5 111.5t60.5 90.5t90.5 60.5t111.5 22.5t112.5 -23.5t94.5 -64.5v41q0 39 39 39h409q16 0 27.5 -11.5t11.5 -27.5t-11 -27.5t-28 -11.5h-370v-240v-247h329 q16 0 27.5 -11.5t11.5 -27.5t-11 -27.5t-28 -11.5h-329v-289v-240h370q16 0 27.5 -11t11.5 -27t-11 -27.5t-28 -11.5h-409q-39 0 -39 39v40zM219 303q0 -43 16.5 -81t44 -65.5t65.5 -44t81 -16.5t80 16.5t65.5 44t45 65.5t16.5 81v41v614v41q0 43 -16.5 81t-45 66t-65.5 44 t-80 16t-81 -16t-65.5 -44t-44 -66t-16.5 -81v-696z" />
<glyph unicode="&#x153;" horiz-adv-x="1163" d="M590 133q-33 -51 -86 -82t-119 -31q-49 0 -93 19.5t-77 52.5t-52.5 77t-19.5 93v410q0 49 19.5 93t52.5 76.5t77 52t93 19.5q66 0 119 -30.5t86 -81.5q33 51 86 81.5t119 30.5q49 0 93 -19.5t76.5 -52t52 -76.5t19.5 -93v-205q0 -16 -10 -26.5t-27 -10.5h-372v-168 q0 -51 27.5 -93t74.5 -63q47 -20 97.5 -10t86.5 47q10 10 25 11q16 0 27 -11q10 -10 10 -26q0 -14 -10 -25q-53 -53 -124 -67.5t-139 14.5q-75 31 -112 94zM795 840q-70 0 -119 -49.5t-49 -118.5v-168h336v168q0 70 -49 119t-119 49zM385 94q70 0 119 49.5t49 118.5v410 q0 70 -49 119t-119 49t-119 -49.5t-49 -118.5v-410q0 -70 49 -119t119 -49z" />
<glyph unicode="&#x178;" horiz-adv-x="823" d="M160 1264l104 -211l83 -169l63 -124l63 124l84 169l105 211q8 14 22 19t31 -3q14 -8 19 -22.5t-1 -30.5l-282 -565v-605q0 -16 -12.5 -27.5t-28.5 -11.5t-27.5 11.5t-11.5 27.5v605l-283 565q-8 16 -3 30.5t21 22.5q14 8 30 3t24 -19zM573 1534q-25 0 -42 17.5t-17 41.5 q0 25 17.5 42.5t41.5 17.5q25 0 43.5 -17.5t18.5 -42.5t-18.5 -42t-43.5 -17zM307 1593q0 -25 -18.5 -42t-42.5 -17q-25 0 -42.5 17.5t-17.5 41.5q0 25 17.5 42.5t42.5 17.5t43 -17.5t18 -42.5z" />
<glyph unicode="&#x2c6;" horiz-adv-x="1024" d="M674 1073l-68 53l-55 42q-27 19 -39 30l-40 -30l-54 -42l-68 -53q-12 -10 -26.5 -8t-24.5 14t-8 26.5t14 24.5l184 144q25 16 46 0l184 -144q12 -10 14 -24t-8 -27q-10 -12 -24.5 -14t-26.5 8z" />
<glyph unicode="&#x2dc;" horiz-adv-x="1024" d="M666 1229q23 29 51 10q12 -10 16 -24.5t-6 -26.5q-39 -57 -106 -70q-63 -12 -123 31l-17 12q-27 20 -65 15q-35 -6 -58 -37q-8 -12 -23.5 -15.5t-27.5 4.5q-29 23 -10 52q39 57 106 69q33 6 65 -2t58 -28l17 -13q27 -20 65 -14q40 6 58 37z" />
<glyph unicode="&#x2000;" horiz-adv-x="884" />
<glyph unicode="&#x2001;" horiz-adv-x="1771" />
<glyph unicode="&#x2002;" horiz-adv-x="884" />
<glyph unicode="&#x2003;" horiz-adv-x="1771" />
<glyph unicode="&#x2004;" horiz-adv-x="589" />
<glyph unicode="&#x2005;" horiz-adv-x="442" />
<glyph unicode="&#x2006;" horiz-adv-x="294" />
<glyph unicode="&#x2007;" horiz-adv-x="294" />
<glyph unicode="&#x2008;" horiz-adv-x="221" />
<glyph unicode="&#x2009;" horiz-adv-x="354" />
<glyph unicode="&#x200a;" horiz-adv-x="98" />
<glyph unicode="&#x2010;" d="M711 590q0 -16 -11.5 -27.5t-27.5 -11.5h-492q-16 0 -28.5 11t-12.5 28q0 16 12.5 27.5t28.5 11.5h492q16 0 27.5 -11.5t11.5 -27.5z" />
<glyph unicode="&#x2011;" d="M711 590q0 -16 -11.5 -27.5t-27.5 -11.5h-492q-16 0 -28.5 11t-12.5 28q0 16 12.5 27.5t28.5 11.5h492q16 0 27.5 -11.5t11.5 -27.5z" />
<glyph unicode="&#x2012;" d="M711 590q0 -16 -11.5 -27.5t-27.5 -11.5h-492q-16 0 -28.5 11t-12.5 28q0 16 12.5 27.5t28.5 11.5h492q16 0 27.5 -11.5t11.5 -27.5z" />
<glyph unicode="&#x2013;" horiz-adv-x="1024" d="M1024 629q39 0 39 -39t-39 -39h-1024q-16 0 -27.5 11t-11.5 28q0 16 11.5 27.5t27.5 11.5h1024z" />
<glyph unicode="&#x2014;" horiz-adv-x="2048" d="M0 551q-16 0 -27.5 11t-11.5 28q0 16 11.5 27.5t27.5 11.5h2048q39 0 39 -39t-39 -39h-2048z" />
<glyph unicode="&#x2018;" horiz-adv-x="393" d="M244 1210q-43 -16 -43 -63v-62h28q16 0 26.5 -10t10.5 -26t-10 -26.5t-27 -10.5h-65q-16 0 -27.5 10t-11.5 27v98q0 43 23.5 80t64.5 53q16 6 29.5 0t19.5 -20t1 -29t-19 -21z" />
<glyph unicode="&#x2019;" horiz-adv-x="393" d="M147 1075q43 16 43 64v61h-26q-16 0 -27.5 10.5t-11.5 26.5t11 26.5t28 10.5h65q16 0 26.5 -10.5t10.5 -26.5v-98q0 -43 -23.5 -80t-64.5 -53q-16 -6 -29.5 0t-19.5 20t-1 28.5t19 20.5z" />
<glyph unicode="&#x201a;" horiz-adv-x="391" d="M229 135q16 0 26.5 -10t10.5 -27v-98q0 -43 -23.5 -80t-64.5 -53q-16 -6 -29.5 0t-19.5 20t-1 28.5t19 21.5q43 16 43 63v61h-26q-16 0 -27.5 10.5t-11.5 26.5t11 26.5t28 10.5h65z" />
<glyph unicode="&#x201c;" horiz-adv-x="759" d="M610 1210q-43 -16 -43 -63v-62h29q16 0 26.5 -10t10.5 -26t-10.5 -26.5t-26.5 -10.5h-66q-16 0 -26 10t-10 27v98q0 43 23.5 80t64.5 53q14 6 28.5 0t20.5 -20t-0.5 -29t-20.5 -21zM242 1210q-43 -16 -43 -63v-62h28q16 0 26.5 -10t10.5 -26t-10 -26.5t-27 -10.5h-65 q-16 0 -26.5 10t-10.5 27v98q0 43 23.5 80t64.5 53q14 6 28.5 0t20.5 -20t0 -29t-20 -21z" />
<glyph unicode="&#x201d;" horiz-adv-x="761" d="M150 1075q43 16 43 64v61h-29q-16 0 -26.5 10.5t-10.5 26.5t10 26.5t27 10.5h65q16 0 26.5 -10.5t10.5 -26.5v-98q0 -43 -23.5 -80t-64.5 -53q-14 -6 -28.5 0t-20.5 20t0.5 28.5t20.5 20.5zM496 1237q0 16 10 26.5t26 10.5h66q16 0 26.5 -10.5t10.5 -26.5v-98 q0 -43 -23.5 -80t-64.5 -53q-14 -6 -28.5 0t-20.5 20t0 28.5t20 20.5q43 16 43 64v61h-29q-16 0 -26 10.5t-10 26.5z" />
<glyph unicode="&#x201e;" horiz-adv-x="761" d="M150 -63q43 16 43 63v61h-29q-16 0 -26.5 10.5t-10.5 26.5t10 26.5t27 10.5h65q16 0 26.5 -10t10.5 -27v-98q0 -43 -23.5 -80t-64.5 -53q-14 -6 -28.5 0t-20.5 20t0.5 29t20.5 21zM518 -63q43 16 43 63v61h-29q-16 0 -26 10.5t-10 26.5t10 26.5t26 10.5h66q16 0 26.5 -10 t10.5 -27v-98q0 -43 -23.5 -80t-64.5 -53q-14 -6 -28.5 0t-20.5 20t0 29t20 21z" />
<glyph unicode="&#x2022;" horiz-adv-x="524" d="M262 756q74 0 127 -52.5t53 -125.5q0 -74 -53 -126.5t-127 -52.5t-126 52.5t-52 126.5t52 126t126 52zM262 469q45 0 77 31.5t32 77.5q0 45 -32 76.5t-77 31.5t-75.5 -31.5t-30.5 -76.5t30.5 -77t75.5 -32z" />
<glyph unicode="&#x2026;" horiz-adv-x="1179" d="M180 137q27 0 44.5 -17.5t17.5 -41.5q0 -25 -17.5 -42.5t-44.5 -17.5q-25 0 -42 17.5t-17 42.5t17 42t42 17zM651 78q0 -25 -17.5 -42.5t-43.5 -17.5q-25 0 -42.5 17.5t-17.5 42.5t17.5 42t42.5 17q27 0 44 -17t17 -42zM940 78q0 25 17.5 42t41.5 17q27 0 44.5 -17.5 t17.5 -41.5q0 -25 -17.5 -42.5t-44.5 -17.5q-25 0 -42 17.5t-17 42.5z" />
<glyph unicode="&#x202f;" horiz-adv-x="354" />
<glyph unicode="&#x2039;" horiz-adv-x="489" d="M336 836q0 -10 -6 -19l-54 -98l-42 -75q-19 -36 -25 -46q6 -12 28 -51l44 -80l57 -105q6 -10 6 -18q0 -20 -20 -35q-16 -8 -30.5 -4t-23.5 21l-139 252q-12 18 0 38l131 238q8 14 22.5 19.5t30.5 -3.5q21 -14 21 -34z" />
<glyph unicode="&#x203a;" horiz-adv-x="489" d="M360 616q10 -20 0 -38l-139 -252q-8 -16 -23.5 -20.5t-29.5 3.5q-20 14 -21 35q0 8 7 18l57 105l43 80l27 51q-6 10 -26 46l-40 75l-53 98q-6 8 -6 19q0 20 20 34q14 8 29.5 3t23.5 -19z" />
<glyph unicode="&#x205f;" horiz-adv-x="442" />
<glyph unicode="&#x20ac;" d="M459 1198q-68 -16 -111 -72.5t-43 -126.5v-145h289q16 0 27.5 -11.5t11.5 -27.5t-11.5 -27.5t-27.5 -11.5h-289v-250h207q16 0 27.5 -11t11.5 -28q0 -16 -11.5 -27t-27.5 -11h-207v-146q0 -72 43 -127t111 -72q68 -18 132 8.5t99 88.5l21 35q8 14 23.5 18t29.5 -4 t18 -23.5t-4 -29.5l-20 -37q-47 -84 -137.5 -121t-182.5 -12q-94 27 -153.5 102.5t-59.5 173.5v146h-123q-16 0 -28.5 11t-12.5 27t12.5 27.5t28.5 11.5h123v250h-123q-16 0 -28.5 11.5t-12.5 27.5t12.5 27.5t28.5 11.5h123v145q0 98 59.5 174t153.5 101q45 12 92.5 9 t90.5 -20.5t77.5 -48t59.5 -71.5l20 -37q8 -14 4 -29.5t-18 -23.5t-29.5 -4t-23.5 18l-21 35q-35 61 -99 87.5t-132 8.5z" />
<glyph unicode="&#x2122;" horiz-adv-x="1372" d="M803 1268l71 -101l58 -82l45 -63l46 63l58 82l70 101q18 23 43 12q27 -8 27 -35v-614q0 -16 -11.5 -26.5t-27.5 -10.5t-26.5 10t-10.5 27v497l-47 -65l-45 -62l-45 -65q-10 -14 -31 -14q-16 0 -31 14l-45 65l-44 62l-46 65v-497q0 -16 -11.5 -26.5t-27.5 -10.5t-26.5 10 t-10.5 27v614q0 29 27 35q25 11 41 -12zM117 1200q-16 0 -26.5 10.5t-10.5 26.5t10 26.5t27 10.5h409q16 0 27.5 -10.5t11.5 -26.5t-11 -26.5t-28 -10.5h-166v-569q0 -16 -11 -26.5t-27 -10.5t-26.5 10t-10.5 27v569h-168z" />
<glyph unicode="&#xe000;" horiz-adv-x="915" d="M0 915h915v-915h-915v915z" />
<glyph unicode="&#xfb01;" horiz-adv-x="1015" d="M811 1126q-23 0 -40.5 17.5t-17.5 40.5t17.5 40t40.5 17q25 0 41 -17.5t16 -39.5q0 -23 -16 -40.5t-41 -17.5zM848 57q0 -16 -10.5 -26.5t-26.5 -10.5t-26.5 10.5t-10.5 26.5v820q0 16 10 26t27 10q16 0 26.5 -10t10.5 -26v-820zM115 831q-16 0 -26.5 10.5t-10.5 26.5 t10 26.5t27 10.5h127v176q0 49 19.5 93.5t52 77t76.5 52t93 19.5q16 0 26.5 -10t10.5 -27q0 -16 -10 -26.5t-27 -10.5q-70 0 -119 -49t-49 -119v-176h168q16 0 26.5 -10t10.5 -27q0 -16 -10 -26.5t-27 -10.5h-168v-774q0 -16 -10 -26.5t-26 -10.5t-26.5 10.5t-10.5 26.5v774 h-127z" />
<glyph unicode="&#xfb02;" horiz-adv-x="1015" d="M868 25q-47 29 -73.5 74.5t-26.5 99.5v1087q0 16 11 26.5t26 10.5q16 0 26.5 -10t10.5 -27v-1087q0 -35 17 -64t46 -45q14 -8 18 -22l2 -10q0 -10 -6 -19q-8 -14 -22 -19q-5 -1 -10 -1zM115 831q-16 0 -26.5 10.5t-10.5 26.5t10 26.5t27 10.5h127v176q0 49 19.5 93.5 t52 77t76.5 52t93 19.5q16 0 26.5 -10t10.5 -27q0 -16 -10 -26.5t-27 -10.5q-70 0 -119 -49t-49 -119v-176h168q16 0 26.5 -10t10.5 -27q0 -16 -10 -26.5t-27 -10.5h-168v-774q0 -16 -10 -26.5t-26 -10.5t-26.5 10.5t-10.5 26.5v774h-127z" />
<glyph unicode="&#xfb03;" horiz-adv-x="1622" d="M1417 1126q-23 0 -40.5 17.5t-17.5 40.5t17.5 40t40.5 17q25 0 41 -17.5t16 -39.5q0 -23 -16 -40.5t-41 -17.5zM1454 57q0 -16 -10.5 -26.5t-26.5 -10.5t-26.5 10.5t-10.5 26.5v820q0 16 10 26t27 10q16 0 26.5 -10t10.5 -26v-820zM721 831q-16 0 -26.5 10.5t-10.5 26.5 t10 26.5t27 10.5h127v176q0 49 19.5 93.5t52 77t76.5 52t93 19.5q16 0 26.5 -10t10.5 -27q0 -16 -10 -26.5t-27 -10.5q-70 0 -119 -49t-49 -119v-176h168q16 0 26.5 -10t10.5 -27q0 -16 -10 -26.5t-27 -10.5h-168v-774q0 -16 -10 -26.5t-26 -10.5t-26.5 10.5t-10.5 26.5v774 h-127zM115 831q-16 0 -26.5 10.5t-10.5 26.5t10 26.5t27 10.5h127v176q0 49 19.5 93.5t52 77t76.5 52t93 19.5q16 0 26.5 -10t10.5 -27q0 -16 -10 -26.5t-27 -10.5q-70 0 -119 -49t-49 -119v-176h168q16 0 26.5 -10t10.5 -27q0 -16 -10 -26.5t-27 -10.5h-168v-774 q0 -16 -10 -26.5t-26 -10.5t-26.5 10.5t-10.5 26.5v774h-127z" />
<glyph unicode="&#xfb04;" horiz-adv-x="1622" d="M1474 25q-47 29 -73.5 74.5t-26.5 99.5v1087q0 16 11 26.5t26 10.5q16 0 26.5 -10t10.5 -27v-1087q0 -35 17 -64t46 -45q14 -8 18 -22l2 -10q0 -10 -6 -19q-8 -14 -22 -19q-5 -1 -10 -1zM721 831q-16 0 -26.5 10.5t-10.5 26.5t10 26.5t27 10.5h127v176q0 49 19.5 93.5 t52 77t76.5 52t93 19.5q16 0 26.5 -10t10.5 -27q0 -16 -10 -26.5t-27 -10.5q-70 0 -119 -49t-49 -119v-176h168q16 0 26.5 -10t10.5 -27q0 -16 -10 -26.5t-27 -10.5h-168v-774q0 -16 -10 -26.5t-26 -10.5t-26.5 10.5t-10.5 26.5v774h-127zM115 831q-16 0 -26.5 10.5 t-10.5 26.5t10 26.5t27 10.5h127v176q0 49 19.5 93.5t52 77t76.5 52t93 19.5q16 0 26.5 -10t10.5 -27q0 -16 -10 -26.5t-27 -10.5q-70 0 -119 -49t-49 -119v-176h168q16 0 26.5 -10t10.5 -27q0 -16 -10 -26.5t-27 -10.5h-168v-774q0 -16 -10 -26.5t-26 -10.5t-26.5 10.5 t-10.5 26.5v774h-127z" />
</font>
</defs>
</svg>
